  0
SECTION
  2
HEADER
  9
$ACADVER
  1
AC1015
  9
$ACADMAINTVER
 70
    20
  9
$DWGCODEPAGE
  3
ANSI_1252
  9
$INSBASE
 10
0.0
 20
0.0
 30
0.0
  9
$EXTMIN
 10
-2716.841587879128
 20
-1229.053084203575
 30
0.0
  9
$EXTMAX
 10
-1324.360284040511
 20
464.9063320116573
 30
0.0
  9
$LIMMIN
 10
0.0
 20
0.0
  9
$LIMMAX
 10
1147.891967773437
 20
1238.149536132812
  9
$ORTHOMODE
 70
     0
  9
$REGENMODE
 70
     1
  9
$FILLMODE
 70
     1
  9
$QTEXTMODE
 70
     0
  9
$MIRRTEXT
 70
     1
  9
$LTSCALE
 40
20.0
  9
$ATTMODE
 70
     1
  9
$TEXTSIZE
 40
0.2
  9
$TRACEWID
 40
0.05
  9
$TEXTSTYLE
  7
STANDARD
  9
$CLAYER
  8
0
  9
$CELTYPE
  6
CONTINUOUS
  9
$CECOLOR
 62
   256
  9
$CELTSCALE
 40
1.0
  9
$DISPSILH
 70
     0
  9
$DIMSCALE
 40
1.0
  9
$DIMASZ
 40
50.0
  9
$DIMEXO
 40
0.0
  9
$DIMDLI
 40
0.0
  9
$DIMRND
 40
0.0
  9
$DIMDLE
 40
0.0
  9
$DIMEXE
 40
20.0
  9
$DIMTP
 40
0.0
  9
$DIMTM
 40
0.0
  9
$DIMTXT
 40
50.0
  9
$DIMCEN
 40
0.0
  9
$DIMTSZ
 40
0.0
  9
$DIMTOL
 70
     0
  9
$DIMLIM
 70
     0
  9
$DIMTIH
 70
     1
  9
$DIMTOH
 70
     1
  9
$DIMSE1
 70
     0
  9
$DIMSE2
 70
     0
  9
$DIMTAD
 70
     1
  9
$DIMZIN
 70
     0
  9
$DIMBLK
  1

  9
$DIMASO
 70
     1
  9
$DIMSHO
 70
     1
  9
$DIMPOST
  1

  9
$DIMAPOST
  1

  9
$DIMALT
 70
     0
  9
$DIMALTD
 70
     2
  9
$DIMALTF
 40
25.4
  9
$DIMLFAC
 40
1.0
  9
$DIMTOFL
 70
     0
  9
$DIMTVP
 40
0.0
  9
$DIMTIX
 70
     0
  9
$DIMSOXD
 70
     0
  9
$DIMSAH
 70
     0
  9
$DIMBLK1
  1

  9
$DIMBLK2
  1

  9
$DIMSTYLE
  2
STANDARD
  9
$DIMCLRD
 70
     0
  9
$DIMCLRE
 70
     0
  9
$DIMCLRT
 70
     0
  9
$DIMTFAC
 40
1.0
  9
$DIMGAP
 40
5.0
  9
$DIMJUST
 70
     0
  9
$DIMSD1
 70
     0
  9
$DIMSD2
 70
     0
  9
$DIMTOLJ
 70
     1
  9
$DIMTZIN
 70
     0
  9
$DIMALTZ
 70
     0
  9
$DIMALTTZ
 70
     0
  9
$DIMUPT
 70
     0
  9
$DIMDEC
 70
     0
  9
$DIMTDEC
 70
     0
  9
$DIMALTU
 70
     2
  9
$DIMALTTD
 70
     2
  9
$DIMTXSTY
  7
STANDARD
  9
$DIMAUNIT
 70
     0
  9
$DIMADEC
 70
     0
  9
$DIMALTRND
 40
0.0
  9
$DIMAZIN
 70
     0
  9
$DIMDSEP
 70
    46
  9
$DIMATFIT
 70
     3
  9
$DIMFRAC
 70
     0
  9
$DIMLDRBLK
  1

  9
$DIMLUNIT
 70
     2
  9
$DIMLWD
 70
    -2
  9
$DIMLWE
 70
    -2
  9
$DIMTMOVE
 70
     0
  9
$LUNITS
 70
     2
  9
$LUPREC
 70
     0
  9
$SKETCHINC
 40
0.1
  9
$FILLETRAD
 40
0.0
  9
$AUNITS
 70
     1
  9
$AUPREC
 70
     1
  9
$MENU
  1
acad
  9
$ELEVATION
 40
0.0
  9
$PELEVATION
 40
0.0
  9
$THICKNESS
 40
0.0
  9
$LIMCHECK
 70
     0
  9
$CHAMFERA
 40
0.0
  9
$CHAMFERB
 40
0.0
  9
$CHAMFERC
 40
0.0
  9
$CHAMFERD
 40
0.0
  9
$SKPOLY
 70
     0
  9
$TDCREATE
 40
2453042.321168982
  9
$TDUCREATE
 40
2453042.279502315
  9
$TDUPDATE
 40
2454490.592243229
  9
$TDUUPDATE
 40
2454490.550576563
  9
$TDINDWG
 40
0.4452271644
  9
$TDUSRTIMER
 40
0.4451544676
  9
$USRTIMER
 70
     1
  9
$ANGBASE
 50
0.0
  9
$ANGDIR
 70
     0
  9
$PDMODE
 70
     2
  9
$PDSIZE
 40
1.0
  9
$PLINEWID
 40
0.0
  9
$SPLFRAME
 70
     0
  9
$SPLINETYPE
 70
     6
  9
$SPLINESEGS
 70
     8
  9
$HANDSEED
  5
25B9
  9
$SURFTAB1
 70
     6
  9
$SURFTAB2
 70
     6
  9
$SURFTYPE
 70
     6
  9
$SURFU
 70
     6
  9
$SURFV
 70
     6
  9
$UCSBASE
  2

  9
$UCSNAME
  2

  9
$UCSORG
 10
0.0
 20
0.0
 30
0.0
  9
$UCSXDIR
 10
1.0
 20
0.0
 30
0.0
  9
$UCSYDIR
 10
0.0
 20
1.0
 30
0.0
  9
$UCSORTHOREF
  2

  9
$UCSORTHOVIEW
 70
     0
  9
$UCSORGTOP
 10
0.0
 20
0.0
 30
0.0
  9
$UCSORGBOTTOM
 10
0.0
 20
0.0
 30
0.0
  9
$UCSORGLEFT
 10
0.0
 20
0.0
 30
0.0
  9
$UCSORGRIGHT
 10
0.0
 20
0.0
 30
0.0
  9
$UCSORGFRONT
 10
0.0
 20
0.0
 30
0.0
  9
$UCSORGBACK
 10
0.0
 20
0.0
 30
0.0
  9
$PUCSBASE
  2

  9
$PUCSNAME
  2

  9
$PUCSORG
 10
0.0
 20
0.0
 30
0.0
  9
$PUCSXDIR
 10
1.0
 20
0.0
 30
0.0
  9
$PUCSYDIR
 10
0.0
 20
1.0
 30
0.0
  9
$PUCSORTHOREF
  2

  9
$PUCSORTHOVIEW
 70
     0
  9
$PUCSORGTOP
 10
0.0
 20
0.0
 30
0.0
  9
$PUCSORGBOTTOM
 10
0.0
 20
0.0
 30
0.0
  9
$PUCSORGLEFT
 10
0.0
 20
0.0
 30
0.0
  9
$PUCSORGRIGHT
 10
0.0
 20
0.0
 30
0.0
  9
$PUCSORGFRONT
 10
0.0
 20
0.0
 30
0.0
  9
$PUCSORGBACK
 10
0.0
 20
0.0
 30
0.0
  9
$USERI1
 70
     0
  9
$USERI2
 70
     0
  9
$USERI3
 70
     0
  9
$USERI4
 70
     0
  9
$USERI5
 70
     0
  9
$USERR1
 40
0.0
  9
$USERR2
 40
0.0
  9
$USERR3
 40
0.0
  9
$USERR4
 40
0.0
  9
$USERR5
 40
0.0
  9
$WORLDVIEW
 70
     1
  9
$SHADEDGE
 70
     3
  9
$SHADEDIF
 70
    70
  9
$TILEMODE
 70
     1
  9
$MAXACTVP
 70
    16
  9
$PINSBASE
 10
0.0
 20
0.0
 30
0.0
  9
$PLIMCHECK
 70
     0
  9
$PEXTMIN
 10
1.000000000000000E+20
 20
1.000000000000000E+20
 30
1.000000000000000E+20
  9
$PEXTMAX
 10
-1.000000000000000E+20
 20
-1.000000000000000E+20
 30
-1.000000000000000E+20
  9
$PLIMMIN
 10
0.0
 20
0.0
  9
$PLIMMAX
 10
1147.891967773437
 20
1238.149536132812
  9
$UNITMODE
 70
     0
  9
$VISRETAIN
 70
     0
  9
$PLINEGEN
 70
     1
  9
$PSLTSCALE
 70
     0
  9
$TREEDEPTH
 70
  3020
  9
$CMLSTYLE
  2
STANDARD
  9
$CMLJUST
 70
     0
  9
$CMLSCALE
 40
1.0
  9
$PROXYGRAPHICS
 70
     0
  9
$MEASUREMENT
 70
     0
  9
$CELWEIGHT
370
    -1
  9
$ENDCAPS
280
     0
  9
$JOINSTYLE
280
     0
  9
$LWDISPLAY
290
     0
  9
$INSUNITS
 70
     0
  9
$HYPERLINKBASE
  1

  9
$STYLESHEET
  1

  9
$XEDIT
290
     1
  9
$CEPSNTYPE
380
     0
  9
$PSTYLEMODE
290
     1
  9
$FINGERPRINTGUID
  2
{4E86461C-F8B6-4B70-99D4-7F4A6BFF776E}
  9
$VERSIONGUID
  2
{13FE1C59-DFA5-4F96-A403-6A99C3A522EB}
  9
$EXTNAMES
290
     1
  9
$PSVPSCALE
 40
0.0
  9
$OLESTARTUP
290
     0
  0
ENDSEC
  0
SECTION
  2
CLASSES
  0
CLASS
  1
IMAGE
  2
AcDbRasterImage
  3
ISM
 90
    34943
280
     0
281
     1
  0
CLASS
  1
DICTIONARYVAR
  2
AcDbDictionaryVar
  3
ObjectDBX Classes
 90
        0
280
     0
281
     0
  0
CLASS
  1
RASTERVARIABLES
  2
AcDbRasterVariables
  3
ISM
 90
    32768
280
     0
281
     0
  0
CLASS
  1
IMAGEDEF
  2
AcDbRasterImageDef
  3
ISM
 90
    32768
280
     0
281
     0
  0
CLASS
  1
IMAGEDEF_REACTOR
  2
AcDbRasterImageDefReactor
  3
ISM
 90
    32769
280
     0
281
     0
  0
CLASS
  1
IDBUFFER
  2
AcDbIdBuffer
  3
ObjectDBX Classes
 90
    32768
280
     0
281
     0
  0
CLASS
  1
SPATIAL_FILTER
  2
AcDbSpatialFilter
  3
ObjectDBX Classes
 90
    32768
280
     0
281
     0
  0
CLASS
  1
SORTENTSTABLE
  2
AcDbSortentsTable
  3
ObjectDBX Classes
 90
        0
280
     0
281
     0
  0
CLASS
  1
LAYER_INDEX
  2
AcDbLayerIndex
  3
ObjectDBX Classes
 90
    32768
280
     0
281
     0
  0
CLASS
  1
SPATIAL_INDEX
  2
AcDbSpatialIndex
  3
ObjectDBX Classes
 90
    32768
280
     0
281
     0
  0
CLASS
  1
OBJECT_PTR
  2
CAseDLPNTableRecord
  3
ASE-LPNTableRecord
 90
    32769
280
     0
281
     0
  0
CLASS
  1
LAYOUT
  2
AcDbLayout
  3
ObjectDBX Classes
 90
        0
280
     0
281
     0
  0
CLASS
  1
PLOTSETTINGS
  2
AcDbPlotSettings
  3
ObjectDBX Classes
 90
    32768
280
     0
281
     0
  0
CLASS
  1
ACDBDICTIONARYWDFLT
  2
AcDbDictionaryWithDefault
  3
ObjectDBX Classes
 90
        0
280
     0
281
     0
  0
CLASS
  1
ACDBPLACEHOLDER
  2
AcDbPlaceHolder
  3
ObjectDBX Classes
 90
        0
280
     0
281
     0
  0
CLASS
  1
VBA_PROJECT
  2
AcDbVbaProject
  3
acad
 90
    32768
280
     0
281
     0
  0
CLASS
  1
WIPEOUT
  2
AcDbWipeout
  3
"WipeOut|Product Desc: Object Enabler for WipeOut entity                        |Company: Autodesk, Inc.                        |WEB Address: www.autodesk.com"
 90
    34943
280
     0
281
     1
  0
CLASS
  1
WIPEOUTVARIABLES
  2
AcDbWipeoutVariables
  3
"WipeOut|Product Desc:     WipeOut Dbx Application|Company:          Autodesk, Inc.|WEB Address:      www.autodesk.com"
 90
    32768
280
     0
281
     0
  0
CLASS
  1
RTEXT
  2
RText
  3
RText|AutoCAD Express Tool|expresstools@autodesk.com
 90
    32768
280
     0
281
     1
  0
CLASS
  1
ARCALIGNEDTEXT
  2
AcDbArcAlignedText
  3
ATEXT|AutoCAD Express Tool|expresstools@autodesk.com
 90
    32768
280
     0
281
     1
  0
CLASS
  1
MATERIAL
  2
AcDbMaterial
  3
ObjectDBX Classes
 90
     1153
280
     0
281
     0
  0
CLASS
  1
VISUALSTYLE
  2
AcDbVisualStyle
  3
ObjectDBX Classes
 90
     4095
280
     0
281
     0
  0
CLASS
  1
TABLESTYLE
  2
AcDbTableStyle
  3
ObjectDBX Classes
 90
     4095
280
     0
281
     0
  0
CLASS
  1
SCALE
  2
AcDbScale
  3
ObjectDBX Classes
 90
     1153
280
     0
281
     0
  0
CLASS
  1
MLEADERSTYLE
  2
AcDbMLeaderStyle
  3
ACDB_MLEADERSTYLE_CLASS
 90
     4095
280
     0
281
     0
  0
CLASS
  1
CELLSTYLEMAP
  2
AcDbCellStyleMap
  3
ObjectDBX Classes
 90
     1152
280
     0
281
     0
  0
ENDSEC
  0
SECTION
  2
TABLES
  0
TABLE
  2
VPORT
  5
7
102
{ACAD_XDICTIONARY
360
50B
102
}
330
0
100
AcDbSymbolTable
 70
     1
  0
VPORT
  5
48
330
7
100
AcDbSymbolTableRecord
100
AcDbViewportTableRecord
  2
*Active
 70
     0
 10
0.0
 20
0.0
 11
1.0
 21
1.0
 12
-2239.612700941524
 22
-306.2679310335134
 13
0.0
 23
0.0
 14
1.0
 24
1.0
 15
0.0
 25
0.0
 16
0.0
 26
0.0
 36
1.0
 17
0.0
 27
0.0
 37
0.0
 40
3237.319908343049
 41
0.6571428571428571
 42
50.0
 43
0.0
 44
0.0
 50
0.0
 51
0.0
 71
     0
 72
   100
 73
     1
 74
     1
 75
     0
 76
     0
 77
     0
 78
     0
281
     0
 65
     1
110
0.0
120
0.0
130
0.0
111
1.0
121
0.0
131
0.0
112
0.0
122
1.0
132
0.0
 79
     0
146
0.0
  0
ENDTAB
  0
TABLE
  2
LTYPE
  5
4
330
0
100
AcDbSymbolTable
 70
     4
  0
LTYPE
  5
11
330
4
100
AcDbSymbolTableRecord
100
AcDbLinetypeTableRecord
  2
BYBLOCK
 70
     0
  3

 72
    65
 73
     0
 40
0.0
  0
LTYPE
  5
12
330
4
100
AcDbSymbolTableRecord
100
AcDbLinetypeTableRecord
  2
BYLAYER
 70
     0
  3

 72
    65
 73
     0
 40
0.0
  0
LTYPE
  5
13
330
4
100
AcDbSymbolTableRecord
100
AcDbLinetypeTableRecord
  2
CONTINUOUS
 70
     0
  3
Solid line
 72
    65
 73
     0
 40
0.0
  0
LTYPE
  5
1E
330
4
100
AcDbSymbolTableRecord
100
AcDbLinetypeTableRecord
  2
CONTINU
 70
     0
  3

 72
    65
 73
     0
 40
0.0
  0
LTYPE
  5
7D7
330
4
100
AcDbSymbolTableRecord
100
AcDbLinetypeTableRecord
  2
AXES
 70
     0
  3

 72
    65
 73
     4
 40
0.5400000000000002
 49
0.3
 74
     0
 49
-0.08
 74
     0
 49
0.08
 74
     0
 49
-0.08
 74
     0
  0
ENDTAB
  0
TABLE
  2
LAYER
  5
2
330
0
100
AcDbSymbolTable
 70
     2
  0
LAYER
  5
14
102
{ACAD_XDICTIONARY
360
422
102
}
330
2
100
AcDbSymbolTableRecord
100
AcDbLayerTableRecord
  2
0
 70
     0
 62
     7
  6
CONTINUOUS
370
    -3
390
3B
  0
LAYER
  5
86
330
2
100
AcDbSymbolTableRecord
100
AcDbLayerTableRecord
  2
Defpoints
 70
     0
 62
     7
  6
CONTINUOUS
290
     0
370
    -3
390
3B
  0
ENDTAB
  0
TABLE
  2
STYLE
  5
3
330
0
100
AcDbSymbolTable
 70
     2
  0
STYLE
  5
17
330
3
100
AcDbSymbolTableRecord
100
AcDbTextStyleTableRecord
  2
STANDARD
 70
     0
 40
0.0
 41
1.0
 50
0.0
 71
     0
 42
0.2
  3
ARIAL.TTF
  4

1001
ACAD
1000
Arial
1071
       34
  0
STYLE
  5
32
330
3
100
AcDbSymbolTableRecord
100
AcDbTextStyleTableRecord
  2
EUCLID03
 70
     0
 40
0.0
 41
1.0
 50
0.0
 71
     0
 42
3.5
  3
complex                             
  4
eucsymb                             
  0
ENDTAB
  0
TABLE
  2
VIEW
  5
5
330
0
100
AcDbSymbolTable
 70
     0
  0
ENDTAB
  0
TABLE
  2
UCS
  5
6
330
0
100
AcDbSymbolTable
 70
     0
  0
ENDTAB
  0
TABLE
  2
APPID
  5
8
330
0
100
AcDbSymbolTable
 70
     4
  0
APPID
  5
16
330
8
100
AcDbSymbolTableRecord
100
AcDbRegAppTableRecord
  2
ACAD
 70
     0
  0
APPID
  5
46
330
8
100
AcDbSymbolTableRecord
100
AcDbRegAppTableRecord
  2
DCO15
 70
     0
  0
APPID
  5
D5
330
8
100
AcDbSymbolTableRecord
100
AcDbRegAppTableRecord
  2
ACAD_EXEMPT_FROM_CAD_STANDARDS
 70
     0
  0
APPID
  5
146
330
8
100
AcDbSymbolTableRecord
100
AcDbRegAppTableRecord
  2
ACAD_MLEADERVER
 70
     0
  0
ENDTAB
  0
TABLE
  2
DIMSTYLE
  5
9
330
0
100
AcDbSymbolTable
 70
     2
100
AcDbDimStyleTable
 71
     1
340
18
  0
DIMSTYLE
105
18
102
{ACAD_REACTORS
330
23FF
330
2417
330
2425
330
243E
330
2459
330
24B2
330
24BF
330
24DC
330
24E9
330
250A
102
}
330
9
100
AcDbSymbolTableRecord
100
AcDbDimStyleTableRecord
  2
STANDARD
 70
     0
 41
0.0
 42
0.0999999940395355
 43
10.0
 44
1.800000071525573
141
0.0
271
     2
272
     2
289
     0
340
17
  0
ENDTAB
  0
TABLE
  2
BLOCK_RECORD
  5
1
330
0
100
AcDbSymbolTable
 70
    40
  0
BLOCK_RECORD
  5
A
102
{ACAD_XDICTIONARY
360
DD
102
}
330
1
100
AcDbSymbolTableRecord
100
AcDbBlockTableRecord
  2
*MODEL_SPACE
340
3E
  0
BLOCK_RECORD
  5
B
330
1
100
AcDbSymbolTableRecord
100
AcDbBlockTableRecord
  2
*PAPER_SPACE
340
3F
  0
BLOCK_RECORD
  5
67
330
1
100
AcDbSymbolTableRecord
100
AcDbBlockTableRecord
  2
DHV_6_G
340
0
  0
BLOCK_RECORD
  5
16E
102
{ACAD_XDICTIONARY
360
170
102
}
330
1
100
AcDbSymbolTableRecord
100
AcDbBlockTableRecord
  2
A$C4FD16139
340
0
  0
BLOCK_RECORD
  5
5F1
330
1
100
AcDbSymbolTableRecord
100
AcDbBlockTableRecord
  2
A$C263A18AF
340
0
  0
BLOCK_RECORD
  5
628
102
{ACAD_XDICTIONARY
360
640
102
}
330
1
100
AcDbSymbolTableRecord
100
AcDbBlockTableRecord
  2
A$C35CD60FD
340
0
  0
BLOCK_RECORD
  5
645
102
{ACAD_XDICTIONARY
360
65D
102
}
330
1
100
AcDbSymbolTableRecord
100
AcDbBlockTableRecord
  2
A$C075E00B5
340
0
  0
BLOCK_RECORD
  5
B84
102
{ACAD_XDICTIONARY
360
BBB
102
}
330
1
100
AcDbSymbolTableRecord
100
AcDbBlockTableRecord
  2
A$C5A0F2A0A
340
0
  0
BLOCK_RECORD
  5
CAA
330
1
100
AcDbSymbolTableRecord
100
AcDbBlockTableRecord
  2
A$C67486292
340
0
  0
BLOCK_RECORD
  5
E54
102
{ACAD_XDICTIONARY
360
E6E
102
}
330
1
100
AcDbSymbolTableRecord
100
AcDbBlockTableRecord
  2
A$C0A88102C
340
0
  0
BLOCK_RECORD
  5
1394
330
1
100
AcDbSymbolTableRecord
100
AcDbBlockTableRecord
  2
A$C7DF41DE9
340
0
  0
BLOCK_RECORD
  5
1D2E
330
1
100
AcDbSymbolTableRecord
100
AcDbBlockTableRecord
  2
A$C266F1DE4
340
0
  0
BLOCK_RECORD
  5
2400
330
1
100
AcDbSymbolTableRecord
100
AcDbBlockTableRecord
  2
*D27
340
0
  0
BLOCK_RECORD
  5
2418
330
1
100
AcDbSymbolTableRecord
100
AcDbBlockTableRecord
  2
*D28
340
0
  0
BLOCK_RECORD
  5
2426
330
1
100
AcDbSymbolTableRecord
100
AcDbBlockTableRecord
  2
*D29
340
0
  0
BLOCK_RECORD
  5
243F
330
1
100
AcDbSymbolTableRecord
100
AcDbBlockTableRecord
  2
*D30
340
0
  0
BLOCK_RECORD
  5
245A
330
1
100
AcDbSymbolTableRecord
100
AcDbBlockTableRecord
  2
*D31
340
0
  0
BLOCK_RECORD
  5
24B3
330
1
100
AcDbSymbolTableRecord
100
AcDbBlockTableRecord
  2
*D32
340
0
  0
BLOCK_RECORD
  5
24C0
330
1
100
AcDbSymbolTableRecord
100
AcDbBlockTableRecord
  2
*D33
340
0
  0
BLOCK_RECORD
  5
24DD
330
1
100
AcDbSymbolTableRecord
100
AcDbBlockTableRecord
  2
*D35
340
0
  0
BLOCK_RECORD
  5
24EA
330
1
100
AcDbSymbolTableRecord
100
AcDbBlockTableRecord
  2
*D36
340
0
  0
BLOCK_RECORD
  5
250B
330
1
100
AcDbSymbolTableRecord
100
AcDbBlockTableRecord
  2
*D37
340
0
  0
ENDTAB
  0
ENDSEC
  0
SECTION
  2
BLOCKS
  0
BLOCK
  5
D
330
A
100
AcDbEntity
  8
0
100
AcDbBlockBegin
  2
*MODEL_SPACE
 70
     0
 10
0.0
 20
0.0
 30
0.0
  3
*MODEL_SPACE
  1

  0
ENDBLK
  5
E
330
A
100
AcDbEntity
  8
0
100
AcDbBlockEnd
  0
BLOCK
  5
F
330
B
100
AcDbEntity
 67
     1
  8
0
100
AcDbBlockBegin
  2
*PAPER_SPACE
 70
     0
 10
0.0
 20
0.0
 30
0.0
  3
*PAPER_SPACE
  1

  0
ENDBLK
  5
10
330
B
100
AcDbEntity
 67
     1
  8
0
100
AcDbBlockEnd
  0
BLOCK
  5
72
330
67
100
AcDbEntity
  8
0
100
AcDbBlockBegin
  2
DHV_6_G
 70
     0
 10
0.0
 20
0.0
 30
0.0
  3
DHV_6_G
  1

  0
CIRCLE
  5
68
330
67
100
AcDbEntity
  8
0
  6
CONTINU
 62
     7
100
AcDbCircle
 10
-9.12719440460205
 20
-11.26115131378174
 30
0.0
 40
378.535888671875
  0
CIRCLE
  5
69
330
67
100
AcDbEntity
  8
0
  6
CONTINU
 62
     7
100
AcDbCircle
 10
-9.127197265625
 20
-11.26115798950195
 30
0.0
 40
309.2539367675781
  0
LINE
  5
6A
330
67
100
AcDbEntity
  8
0
  6
CONTINU
 62
     7
100
AcDbLine
 10
440.872863769531
 20
-461.2611694335937
 30
0.0
 11
440.872863769531
 21
438.738830566406
 31
0.0
  0
LINE
  5
6B
330
67
100
AcDbEntity
  8
0
  6
CONTINU
 62
     7
100
AcDbLine
 10
412.872802734375
 20
-433.2611694335937
 30
0.0
 11
412.872802734375
 21
410.7388305664062
 31
0.0
  0
LINE
  5
6C
330
67
100
AcDbEntity
  8
0
  6
CONTINU
 62
     7
100
AcDbLine
 10
-431.127197265625
 20
-433.2611694335937
 30
0.0
 11
-431.127197265625
 21
410.7388305664062
 31
0.0
  0
LINE
  5
6D
330
67
100
AcDbEntity
  8
0
  6
CONTINU
 62
     7
100
AcDbLine
 10
-459.127197265625
 20
-461.2611694335937
 30
0.0
 11
-459.127197265625
 21
438.738830566406
 31
0.0
  0
LINE
  5
6E
330
67
100
AcDbEntity
  8
0
  6
CONTINU
 62
     7
100
AcDbLine
 10
-459.127197265625
 20
438.738830566406
 30
0.0
 11
440.872863769531
 21
438.738830566406
 31
0.0
  0
LINE
  5
6F
330
67
100
AcDbEntity
  8
0
  6
CONTINU
 62
     7
100
AcDbLine
 10
-431.127197265625
 20
410.7388305664062
 30
0.0
 11
412.872802734375
 21
410.7388305664062
 31
0.0
  0
LINE
  5
70
330
67
100
AcDbEntity
  8
0
  6
CONTINU
 62
     7
100
AcDbLine
 10
-431.127197265625
 20
-433.2611694335937
 30
0.0
 11
412.872802734375
 21
-433.2611694335937
 31
0.0
  0
LINE
  5
71
330
67
100
AcDbEntity
  8
0
  6
CONTINU
 62
     7
100
AcDbLine
 10
-459.127197265625
 20
-461.2611694335937
 30
0.0
 11
440.872863769531
 21
-461.2611694335937
 31
0.0
  0
ENDBLK
  5
73
330
67
100
AcDbEntity
  8
0
100
AcDbBlockEnd
  0
BLOCK
  5
172
330
16E
100
AcDbEntity
  8
0
100
AcDbBlockBegin
  2
A$C4FD16139
 70
     0
 10
0.0
 20
0.0
 30
0.0
  3
A$C4FD16139
  1

  0
CIRCLE
  5
16F
330
16E
100
AcDbEntity
  8
0
  6
Continuous
100
AcDbCircle
 10
12.49999823822873
 20
12.50000180388568
 30
0.0
 40
12.5
  0
ENDBLK
  5
173
330
16E
100
AcDbEntity
  8
0
100
AcDbBlockEnd
  0
BLOCK
  5
607
330
5F1
100
AcDbEntity
  8
0
100
AcDbBlockBegin
  2
A$C263A18AF
 70
     0
 10
0.0
 20
0.0
 30
0.0
  3
A$C263A18AF
  1

  0
ARC
  5
5F2
330
5F1
100
AcDbEntity
  8
0
 62
     7
100
AcDbCircle
 10
-687.5709842608426
 20
79.55958264468552
 30
0.0
 40
58.8818567888008
100
AcDbArc
 50
2.321239149101261
 51
63.00204056460354
  0
ARC
  5
5F3
330
5F1
100
AcDbEntity
  8
0
 62
     7
100
AcDbCircle
 10
-67.31404517392843
 20
79.55958264468552
 30
0.0
 40
58.88186821000543
100
AcDbArc
 50
116.8833060587522
 51
177.6787515591502
  0
LINE
  5
5F4
330
5F1
100
AcDbEntity
  8
0
 62
     7
100
AcDbLine
 10
-498.2553974078152
 20
81.9444822418535
 30
0.0
 11
-125.4475147173855
 21
81.9444822418535
 31
0.0
  0
LINE
  5
5F5
330
5F1
100
AcDbEntity
  8
0
 62
     7
100
AcDbLine
 10
-500.8869188616727
 20
74.95851269839647
 30
0.0
 11
-119.9584842608424
 21
74.95851269839647
 31
0.0
  0
LINE
  5
5F6
330
5F1
100
AcDbEntity
  8
0
 62
     7
100
AcDbLine
 10
-629.4375147173854
 20
81.9444822418535
 30
0.0
 11
-498.2553974078152
 21
81.9444822418535
 31
0.0
  0
LINE
  5
5F7
330
5F1
100
AcDbEntity
  8
0
 62
     7
100
AcDbLine
 10
-634.9265451739285
 20
74.95851269839647
 30
0.0
 11
-500.8869188616727
 21
74.95851269839647
 31
0.0
  0
LINE
  5
5F8
330
5F1
100
AcDbEntity
  8
0
 62
     7
100
AcDbLine
 10
-500.8869188616727
 20
66.97448224185371
 30
0.0
 11
-119.9584842608424
 21
66.97448224185371
 31
0.0
  0
LINE
  5
5F9
330
5F1
100
AcDbEntity
  8
0
 62
     7
100
AcDbLine
 10
-634.9265451739285
 20
66.97448224185371
 30
0.0
 11
-500.8869188616727
 21
66.97448224185371
 31
0.0
  0
LINE
  5
5FA
330
5F1
100
AcDbEntity
  8
0
 62
     7
100
AcDbLine
 10
-508.0549423907253
 20
41.07819745181439
 30
0.0
 11
-105.0072150347682
 21
41.07819745181439
 31
0.0
  0
LINE
  5
5FB
330
5F1
100
AcDbEntity
  8
0
 62
     7
100
AcDbLine
 10
-649.8778144000027
 20
41.07819745181439
 30
0.0
 11
-508.0549423907253
 21
41.07819745181439
 31
0.0
  0
LINE
  5
5FC
330
5F1
100
AcDbEntity
  8
0
 62
     7
100
AcDbLine
 10
-508.405192634866
 20
40.3475449859942
 30
0.0
 11
-104.2766387103054
 21
40.3475449859942
 31
0.0
  0
LINE
  5
5FD
330
5F1
100
AcDbEntity
  8
0
 62
     7
100
AcDbLine
 10
-650.6083907244656
 20
40.3475449859942
 30
0.0
 11
-508.405192634866
 21
40.3475449859942
 31
0.0
  0
LINE
  5
5FE
330
5F1
100
AcDbEntity
  8
0
 62
     7
100
AcDbLine
 10
-733.872239143655
 20
19.05430981753704
 30
0.0
 11
-21.0128664324734
 21
19.05430981753704
 31
0.0
  0
LINE
  5
5FF
330
5F1
100
AcDbEntity
  8
0
 62
     7
100
AcDbLine
 10
-733.910424034402
 20
19.27100812075957
 30
0.0
 11
-20.97456732969022
 21
19.27100812075957
 31
0.0
  0
LINE
  5
600
330
5F1
100
AcDbEntity
  8
0
 62
     7
 48
0.0445112088268585
100
AcDbLine
 10
-629.4375147173854
 20
81.9444822418535
 30
0.0
 11
-634.9265451739285
 21
74.95851269839647
 31
0.0
  0
LINE
  5
601
330
5F1
100
AcDbEntity
  8
0
 62
     7
 48
0.0400001525878906
100
AcDbLine
 10
-634.9265451739285
 20
74.95851269839647
 30
0.0
 11
-634.9265451739285
 21
66.97448224185371
 31
0.0
  0
LINE
  5
602
330
5F1
100
AcDbEntity
  8
0
 62
     7
 48
0.1498119995233962
100
AcDbLine
 10
-119.9584842608424
 20
66.97448224185371
 30
0.0
 11
-105.0072150347682
 21
41.07819745181439
 31
0.0
  0
LINE
  5
603
330
5F1
100
AcDbEntity
  8
0
 62
     7
 48
0.1498119995233962
100
AcDbLine
 10
-634.9265451739285
 20
66.97448224185371
 30
0.0
 11
-649.8778144000027
 21
41.07819745181439
 31
0.0
  0
ARC
  5
604
330
5F1
100
AcDbEntity
  8
0
 62
     7
100
AcDbCircle
 10
-651.606375496194
 20
42.07610608218544
 30
0.0
 40
1.995968175289153
100
AcDbArc
 50
299.9997524435411
 51
330.0002382217937
  0
LINE
  5
605
330
5F1
100
AcDbEntity
  8
0
 62
     7
 48
0.2111909782107274
100
AcDbLine
 10
-104.2766387103054
 20
40.3475449859942
 30
0.0
 11
-67.77043647031518
 21
19.27070355533021
 31
0.0
  0
LINE
  5
606
330
5F1
100
AcDbEntity
  8
0
 62
     7
 48
0.2111909782107274
100
AcDbLine
 10
-650.6083907244656
 20
40.3475449859942
 30
0.0
 11
-687.1145929644558
 21
19.27070355533021
 31
0.0
  0
ENDBLK
  5
608
330
5F1
100
AcDbEntity
  8
0
100
AcDbBlockEnd
  0
BLOCK
  5
642
330
628
100
AcDbEntity
  8
0
100
AcDbBlockBegin
  2
A$C35CD60FD
 70
     0
 10
0.0
 20
0.0
 30
0.0
  3
A$C35CD60FD
  1

  0
ARC
  5
629
330
628
100
AcDbEntity
  8
0
 62
     7
100
AcDbCircle
 10
73.52130089540742
 20
79.55958264468552
 30
0.0
 40
58.8818567888008
100
AcDbArc
 50
2.321239149101129
 51
63.00204056460503
  0
ARC
  5
62A
330
628
100
AcDbEntity
  8
0
 62
     7
100
AcDbCircle
 10
693.7782399823215
 20
79.55958264468552
 30
0.0
 40
58.88186821000543
100
AcDbArc
 50
116.8833060587507
 51
177.6787515591505
  0
LINE
  5
62B
330
628
100
AcDbEntity
  8
0
 62
     7
100
AcDbLine
 10
262.8368877484347
 20
81.9444822418535
 30
0.0
 11
635.6447704388645
 21
81.9444822418535
 31
0.0
  0
LINE
  5
62C
330
628
100
AcDbEntity
  8
0
 62
     7
100
AcDbLine
 10
260.2053662945773
 20
74.95851269839647
 30
0.0
 11
641.1338008954076
 21
74.95851269839647
 31
0.0
  0
LINE
  5
62D
330
628
100
AcDbEntity
  8
0
 62
     7
100
AcDbLine
 10
131.6547704388645
 20
81.9444822418535
 30
0.0
 11
262.8368877484347
 21
81.9444822418535
 31
0.0
  0
LINE
  5
62E
330
628
100
AcDbEntity
  8
0
 62
     7
100
AcDbLine
 10
126.1657399823215
 20
74.95851269839647
 30
0.0
 11
260.2053662945773
 21
74.95851269839647
 31
0.0
  0
LINE
  5
62F
330
628
100
AcDbEntity
  8
0
 62
     7
100
AcDbLine
 10
260.2053662945773
 20
66.97448224185371
 30
0.0
 11
641.1338008954076
 21
66.97448224185371
 31
0.0
  0
LINE
  5
630
330
628
100
AcDbEntity
  8
0
 62
     7
100
AcDbLine
 10
126.1657399823215
 20
66.97448224185371
 30
0.0
 11
260.2053662945773
 21
66.97448224185371
 31
0.0
  0
LINE
  5
631
330
628
100
AcDbEntity
  8
0
 62
     7
100
AcDbLine
 10
253.0373427655246
 20
41.07819745181439
 30
0.0
 11
656.0850701214818
 21
41.07819745181439
 31
0.0
  0
LINE
  5
632
330
628
100
AcDbEntity
  8
0
 62
     7
100
AcDbLine
 10
111.2144707562472
 20
41.07819745181439
 30
0.0
 11
253.0373427655246
 21
41.07819745181439
 31
0.0
  0
LINE
  5
633
330
628
100
AcDbEntity
  8
0
 62
     7
100
AcDbLine
 10
252.687092521384
 20
40.3475449859942
 30
0.0
 11
656.8156464459446
 21
40.3475449859942
 31
0.0
  0
LINE
  5
634
330
628
100
AcDbEntity
  8
0
 62
     7
100
AcDbLine
 10
110.4838944317844
 20
40.3475449859942
 30
0.0
 11
252.687092521384
 21
40.3475449859942
 31
0.0
  0
LINE
  5
635
330
628
100
AcDbEntity
  8
0
 62
     7
100
AcDbLine
 10
-3.397996604477839
 20
19.27100812075957
 30
0.0
 11
764.4902847468435
 21
19.27100812075963
 31
0.0
  0
LINE
  5
636
330
628
100
AcDbEntity
  8
0
 62
     7
 48
0.0445112088268585
100
AcDbLine
 10
131.6547704388645
 20
81.9444822418535
 30
0.0
 11
126.1657399823215
 21
74.95851269839647
 31
0.0
  0
LINE
  5
637
330
628
100
AcDbEntity
  8
0
 62
     7
 48
0.0400001525878906
100
AcDbLine
 10
126.1657399823215
 20
74.95851269839647
 30
0.0
 11
126.1657399823215
 21
66.97448224185371
 31
0.0
  0
LINE
  5
638
330
628
100
AcDbEntity
  8
0
 62
     7
 48
0.1498119995233962
100
AcDbLine
 10
641.1338008954076
 20
66.97448224185371
 30
0.0
 11
656.0850701214818
 21
41.07819745181439
 31
0.0
  0
LINE
  5
639
330
628
100
AcDbEntity
  8
0
 62
     7
 48
0.1498119995233962
100
AcDbLine
 10
126.1657399823215
 20
66.97448224185371
 30
0.0
 11
111.2144707562472
 21
41.07819745181439
 31
0.0
  0
ARC
  5
63A
330
628
100
AcDbEntity
  8
0
 62
     7
100
AcDbCircle
 10
109.4859096600559
 20
42.07610608218544
 30
0.0
 40
1.995968175289153
100
AcDbArc
 50
299.9997524435411
 51
330.0002382217921
  0
LINE
  5
63B
330
628
100
AcDbEntity
  8
0
 62
     7
 48
0.2111909782107274
100
AcDbLine
 10
656.8156464459446
 20
40.3475449859942
 30
0.0
 11
693.3218486859348
 21
19.27070355533021
 31
0.0
  0
LINE
  5
63C
330
628
100
AcDbEntity
  8
0
 62
     7
 48
0.2111909782107274
100
AcDbLine
 10
110.4838944317844
 20
40.3475449859942
 30
0.0
 11
73.97769219179417
 21
19.27070355533021
 31
0.0
  0
LINE
  5
63D
330
628
100
AcDbEntity
  8
0
  6
Continuous
100
AcDbLine
 10
-23.28031582961239
 20
132.0293124528435
 30
0.0
 11
784.3803260597389
 21
132.073007486538
 31
0.0
  0
LINE
  5
63E
330
628
100
AcDbEntity
  8
0
  6
Continuous
100
AcDbLine
 10
635.6447704388645
 20
81.9444822418535
 30
0.0
 11
641.1338008954076
 21
74.95851269839647
 31
0.0
  0
LINE
  5
63F
330
628
100
AcDbEntity
  8
0
  6
Continuous
100
AcDbLine
 10
641.1338008954076
 20
74.95851269839647
 30
0.0
 11
641.1338008954076
 21
66.97448224185371
 31
0.0
  0
ENDBLK
  5
643
330
628
100
AcDbEntity
  8
0
100
AcDbBlockEnd
  0
BLOCK
  5
65F
330
645
100
AcDbEntity
  8
0
100
AcDbBlockBegin
  2
A$C075E00B5
 70
     0
 10
0.0
 20
0.0
 30
0.0
  3
A$C075E00B5
  1

  0
ARC
  5
646
330
645
100
AcDbEntity
  8
0
 62
     7
100
AcDbCircle
 10
73.52130089540742
 20
79.55958264468552
 30
0.0
 40
58.8818567888008
100
AcDbArc
 50
2.321239149101129
 51
63.00204056460503
  0
ARC
  5
647
330
645
100
AcDbEntity
  8
0
 62
     7
100
AcDbCircle
 10
693.7782399823215
 20
79.55958264468552
 30
0.0
 40
58.88186821000543
100
AcDbArc
 50
116.8833060587507
 51
177.6787515591505
  0
LINE
  5
648
330
645
100
AcDbEntity
  8
0
 62
     7
100
AcDbLine
 10
262.8368877484347
 20
81.9444822418535
 30
0.0
 11
635.6447704388645
 21
81.9444822418535
 31
0.0
  0
LINE
  5
649
330
645
100
AcDbEntity
  8
0
 62
     7
100
AcDbLine
 10
260.2053662945773
 20
74.95851269839647
 30
0.0
 11
641.1338008954076
 21
74.95851269839647
 31
0.0
  0
LINE
  5
64A
330
645
100
AcDbEntity
  8
0
 62
     7
100
AcDbLine
 10
131.6547704388645
 20
81.9444822418535
 30
0.0
 11
262.8368877484347
 21
81.9444822418535
 31
0.0
  0
LINE
  5
64B
330
645
100
AcDbEntity
  8
0
 62
     7
100
AcDbLine
 10
126.1657399823215
 20
74.95851269839647
 30
0.0
 11
260.2053662945773
 21
74.95851269839647
 31
0.0
  0
LINE
  5
64C
330
645
100
AcDbEntity
  8
0
 62
     7
100
AcDbLine
 10
260.2053662945773
 20
66.97448224185371
 30
0.0
 11
641.1338008954076
 21
66.97448224185371
 31
0.0
  0
LINE
  5
64D
330
645
100
AcDbEntity
  8
0
 62
     7
100
AcDbLine
 10
126.1657399823215
 20
66.97448224185371
 30
0.0
 11
260.2053662945773
 21
66.97448224185371
 31
0.0
  0
LINE
  5
64E
330
645
100
AcDbEntity
  8
0
 62
     7
100
AcDbLine
 10
253.0373427655246
 20
41.07819745181439
 30
0.0
 11
656.0850701214818
 21
41.07819745181439
 31
0.0
  0
LINE
  5
64F
330
645
100
AcDbEntity
  8
0
 62
     7
100
AcDbLine
 10
111.2144707562472
 20
41.07819745181439
 30
0.0
 11
253.0373427655246
 21
41.07819745181439
 31
0.0
  0
LINE
  5
650
330
645
100
AcDbEntity
  8
0
 62
     7
100
AcDbLine
 10
252.687092521384
 20
40.3475449859942
 30
0.0
 11
656.8156464459446
 21
40.3475449859942
 31
0.0
  0
LINE
  5
651
330
645
100
AcDbEntity
  8
0
 62
     7
100
AcDbLine
 10
110.4838944317844
 20
40.3475449859942
 30
0.0
 11
252.687092521384
 21
40.3475449859942
 31
0.0
  0
LINE
  5
652
330
645
100
AcDbEntity
  8
0
 62
     7
100
AcDbLine
 10
-3.397996604477839
 20
19.27100812075957
 30
0.0
 11
764.4902847468435
 21
19.27100812075963
 31
0.0
  0
LINE
  5
653
330
645
100
AcDbEntity
  8
0
 62
     7
 48
0.0445112088268585
100
AcDbLine
 10
131.6547704388645
 20
81.9444822418535
 30
0.0
 11
126.1657399823215
 21
74.95851269839647
 31
0.0
  0
LINE
  5
654
330
645
100
AcDbEntity
  8
0
 62
     7
 48
0.0400001525878906
100
AcDbLine
 10
126.1657399823215
 20
74.95851269839647
 30
0.0
 11
126.1657399823215
 21
66.97448224185371
 31
0.0
  0
LINE
  5
655
330
645
100
AcDbEntity
  8
0
 62
     7
 48
0.1498119995233962
100
AcDbLine
 10
641.1338008954076
 20
66.97448224185371
 30
0.0
 11
656.0850701214818
 21
41.07819745181439
 31
0.0
  0
LINE
  5
656
330
645
100
AcDbEntity
  8
0
 62
     7
 48
0.1498119995233962
100
AcDbLine
 10
126.1657399823215
 20
66.97448224185371
 30
0.0
 11
111.2144707562472
 21
41.07819745181439
 31
0.0
  0
ARC
  5
657
330
645
100
AcDbEntity
  8
0
 62
     7
100
AcDbCircle
 10
109.4859096600559
 20
42.07610608218544
 30
0.0
 40
1.995968175289153
100
AcDbArc
 50
299.9997524435411
 51
330.0002382217921
  0
LINE
  5
658
330
645
100
AcDbEntity
  8
0
 62
     7
 48
0.2111909782107274
100
AcDbLine
 10
656.8156464459446
 20
40.3475449859942
 30
0.0
 11
693.3218486859348
 21
19.27070355533021
 31
0.0
  0
LINE
  5
659
330
645
100
AcDbEntity
  8
0
 62
     7
 48
0.2111909782107274
100
AcDbLine
 10
110.4838944317844
 20
40.3475449859942
 30
0.0
 11
73.97769219179417
 21
19.27070355533021
 31
0.0
  0
LINE
  5
65A
330
645
100
AcDbEntity
  8
0
  6
Continuous
100
AcDbLine
 10
-23.28031582961239
 20
132.0293124528435
 30
0.0
 11
784.3803260597389
 21
132.073007486538
 31
0.0
  0
LINE
  5
65B
330
645
100
AcDbEntity
  8
0
  6
Continuous
100
AcDbLine
 10
635.6447704388645
 20
81.9444822418535
 30
0.0
 11
641.1338008954076
 21
74.95851269839647
 31
0.0
  0
LINE
  5
65C
330
645
100
AcDbEntity
  8
0
  6
Continuous
100
AcDbLine
 10
641.1338008954076
 20
74.95851269839647
 30
0.0
 11
641.1338008954076
 21
66.97448224185371
 31
0.0
  0
ENDBLK
  5
660
330
645
100
AcDbEntity
  8
0
100
AcDbBlockEnd
  0
BLOCK
  5
BBD
330
B84
100
AcDbEntity
  8
0
100
AcDbBlockBegin
  2
A$C5A0F2A0A
 70
     0
 10
0.0
 20
0.0
 30
0.0
  3
A$C5A0F2A0A
  1

  0
LINE
  5
B85
330
B84
100
AcDbEntity
  8
0
  6
AXES
 62
     7
100
AcDbLine
 10
-26.06280000000015
 20
-0.0000099999999179
 30
0.0
 11
26.06284000000016
 21
-0.0000099999999179
 31
0.0
  0
LINE
  5
B86
330
B84
100
AcDbEntity
  8
0
  6
AXES
 62
     7
100
AcDbLine
 10
0.0
 20
26.06280999999996
 30
0.0
 11
0.0
 21
-26.06280999999996
 31
0.0
  0
LINE
  5
B87
330
B84
100
AcDbEntity
  8
0
  6
CONTINU
 62
     7
100
AcDbLine
 10
0.6838800000001584
 20
-17.40051000000011
 30
0.0
 11
-0.5362600000000839
 21
-17.40045000000003
 31
0.0
  0
LINE
  5
B88
330
B84
100
AcDbEntity
  8
0
  6
CONTINU
 62
     7
100
AcDbLine
 10
0.6842600000001085
 20
17.44037000000008
 30
0.0
 11
-0.5359399999998687
 21
17.44045
 31
0.0
  0
LINE
  5
B89
330
B84
100
AcDbEntity
  8
0
  6
CONTINU
 62
     7
100
AcDbLine
 10
17.49443999999994
 20
-0.5903300000000514
 30
0.0
 11
17.49445999999977
 21
0.6298700000001532
 31
0.0
  0
LINE
  5
B8A
330
B84
100
AcDbEntity
  8
0
  6
CONTINU
 62
     7
100
AcDbLine
 10
-17.34648000000004
 20
-0.5899499999998739
 30
0.0
 11
-17.34644000000003
 21
0.630250000000217
 31
0.0
  0
LINE
  5
B8B
330
B84
100
AcDbEntity
  8
0
  6
CONTINU
 62
     7
100
AcDbLine
 10
17.49434000000008
 20
-0.5899099999998612
 30
0.0
 11
17.28264000000013
 21
-1.79122999999987
 31
0.0
  0
LINE
  5
B8C
330
B84
100
AcDbEntity
  8
0
  6
CONTINU
 62
     7
100
AcDbLine
 10
-17.1344399999997
 20
1.831850000000088
 30
0.0
 11
-17.34642000000008
 21
0.6304900000000658
 31
0.0
  0
LINE
  5
B8D
330
B84
100
AcDbEntity
  8
0
  6
CONTINU
 62
     7
100
AcDbLine
 10
17.28302000000008
 20
-1.791190000000085
 30
0.0
 11
15.88281999999992
 21
-7.015430000000094
 31
0.0
  0
LINE
  5
B8E
330
B84
100
AcDbEntity
  8
0
  6
CONTINU
 62
     7
100
AcDbLine
 10
-15.73462000000006
 20
7.056150000000059
 30
0.0
 11
-17.13438000000008
 21
1.832530000000076
 31
0.0
  0
LINE
  5
B8F
330
B84
100
AcDbEntity
  8
0
  6
CONTINU
 62
     7
100
AcDbLine
 10
-15.31758000000013
 20
8.201790000000244
 30
0.0
 11
-15.73485999999991
 21
7.055429999999944
 31
0.0
  0
LINE
  5
B90
330
B84
100
AcDbEntity
  8
0
  6
CONTINU
 62
     7
100
AcDbLine
 10
15.46550000000002
 20
-8.162230000000079
 30
0.0
 11
14.85536000000013
 21
-9.218790000000069
 31
0.0
  0
LINE
  5
B91
330
B84
100
AcDbEntity
  8
0
  6
CONTINU
 62
     7
100
AcDbLine
 10
-14.70744000000013
 20
9.258690000000058
 30
0.0
 11
-15.31751999999972
 21
8.202049999999928
 31
0.0
  0
LINE
  5
B92
330
B84
100
AcDbEntity
  8
0
  6
CONTINU
 62
     7
100
AcDbLine
 10
14.85528000000011
 20
-9.218749999999943
 30
0.0
 11
14.07110000000023
 21
-10.15334999999965
 31
0.0
  0
LINE
  5
B93
330
B84
100
AcDbEntity
  8
0
  6
CONTINU
 62
     7
100
AcDbLine
 10
-13.92283999999984
 20
10.19342999999998
 30
0.0
 11
-14.70744000000013
 21
9.258409999999969
 31
0.0
  0
LINE
  5
B94
330
B84
100
AcDbEntity
  8
0
  6
CONTINU
 62
     7
100
AcDbLine
 10
14.07114000000013
 20
-10.1534299999999
 30
0.0
 11
10.24642000000006
 21
-13.97918999999985
 31
0.0
  0
LINE
  5
B95
330
B84
100
AcDbEntity
  8
0
  6
CONTINU
 62
     7
100
AcDbLine
 10
-10.09933999999987
 20
14.01671000000027
 30
0.0
 11
-13.92379999999991
 21
10.19171000000023
 31
0.0
  0
LINE
  5
B96
330
B84
100
AcDbEntity
  8
0
  6
CONTINU
 62
     7
100
AcDbLine
 10
10.24707999999975
 20
-13.97767000000004
 30
0.0
 11
9.312279999999759
 21
-14.76181000000002
 31
0.0
  0
LINE
  5
B97
330
B84
100
AcDbEntity
  8
0
  6
CONTINU
 62
     7
100
AcDbLine
 10
-9.164439999999899
 20
14.80133000000006
 30
0.0
 11
-10.09901999999977
 21
14.01740999999998
 31
0.0
  0
LINE
  5
B98
330
B84
100
AcDbEntity
  8
0
  6
CONTINU
 62
     7
100
AcDbLine
 10
8.25572000000011
 20
-15.37171000000006
 30
0.0
 11
7.109159999999974
 21
-15.7890099999999
 31
0.0
  0
LINE
  5
B99
330
B84
100
AcDbEntity
  8
0
  6
CONTINU
 62
     7
100
AcDbLine
 10
-6.961099999999873
 20
15.82892999999996
 30
0.0
 11
-8.107680000000073
 21
15.41163000000011
 31
0.0
  0
LINE
  5
B9A
330
B84
100
AcDbEntity
  8
0
  6
CONTINU
 62
     7
100
AcDbLine
 10
-1.737840000000005
 20
17.22822999999999
 30
0.0
 11
-6.961360000000013
 21
15.82758999999993
 31
0.0
  0
LINE
  5
B9B
330
B84
100
AcDbEntity
  8
0
  6
CONTINU
 62
     7
100
AcDbLine
 10
7.109420000000113
 20
-15.78952999999996
 30
0.0
 11
1.885119999999915
 21
-17.18902999999994
 31
0.0
  0
LINE
  5
B9C
330
B84
100
AcDbEntity
  8
0
  6
CONTINU
 62
     7
100
AcDbLine
 10
1.885580000000118
 20
-17.18823000000003
 30
0.0
 11
0.6838599999999815
 21
-17.40012999999993
 31
0.0
  0
LINE
  5
B9D
330
B84
100
AcDbEntity
  8
0
  6
CONTINU
 62
     7
100
AcDbLine
 10
-0.5358799999999065
 20
17.44049000000012
 30
0.0
 11
-1.737520000000017
 21
17.22865000000007
 31
0.0
  0
LINE
  5
B9E
330
B84
100
AcDbEntity
  8
0
  6
CONTINU
 62
     7
100
AcDbLine
 10
1.885920000000055
 20
17.22835000000015
 30
0.0
 11
0.6842600000001085
 21
17.44016999999991
 31
0.0
  0
LINE
  5
B9F
330
B84
100
AcDbEntity
  8
0
  6
CONTINU
 62
     7
100
AcDbLine
 10
-0.5362600000000839
 20
-17.40036999999989
 30
0.0
 11
-1.73795999999993
 21
-17.18835000000007
 31
0.0
  0
LINE
  5
BA0
330
B84
100
AcDbEntity
  8
0
  6
CONTINU
 62
     7
100
AcDbLine
 10
7.109420000000113
 20
15.82881000000014
 30
0.0
 11
1.885580000000118
 21
17.22847000000007
 31
0.0
  0
LINE
  5
BA1
330
B84
100
AcDbEntity
  8
0
  6
CONTINU
 62
     7
100
AcDbLine
 10
-1.737919999999803
 20
-17.18847000000011
 30
0.0
 11
-6.961439999999925
 21
-15.78888999999987
 31
0.0
  0
LINE
  5
BA2
330
B84
100
AcDbEntity
  8
0
  6
CONTINU
 62
     7
100
AcDbLine
 10
8.255960000000072
 20
15.41136999999998
 30
0.0
 11
7.109359999999924
 21
15.82872999999989
 31
0.0
  0
LINE
  5
BA3
330
B84
100
AcDbEntity
  8
0
  6
CONTINU
 62
     7
100
AcDbLine
 10
-6.961420000000089
 20
-15.78892999999988
 30
0.0
 11
-8.108059999999909
 21
-15.37155000000001
 31
0.0
  0
LINE
  5
BA4
330
B84
100
AcDbEntity
  8
0
  6
CONTINU
 62
     7
100
AcDbLine
 10
9.312800000000038
 20
14.80158999999997
 30
0.0
 11
8.255960000000072
 21
15.41132999999996
 31
0.0
  0
LINE
  5
BA5
330
B84
100
AcDbEntity
  8
0
  6
CONTINU
 62
     7
100
AcDbLine
 10
-8.107920000000035
 20
-15.37155000000001
 30
0.0
 11
-9.164619999999899
 21
-14.76166999999992
 31
0.0
  0
LINE
  5
BA6
330
B84
100
AcDbEntity
  8
0
  6
CONTINU
 62
     7
100
AcDbLine
 10
10.24736000000007
 20
14.01691000000022
 30
0.0
 11
9.312599999999974
 21
14.80171000000012
 31
0.0
  0
LINE
  5
BA7
330
B84
100
AcDbEntity
  8
0
  6
CONTINU
 62
     7
100
AcDbLine
 10
-9.164719999999874
 20
-14.76146999999986
 30
0.0
 11
-10.09954000000004
 21
-13.9770499999999
 31
0.0
  0
LINE
  5
BA8
330
B84
100
AcDbEntity
  8
0
  6
CONTINU
 62
     7
100
AcDbLine
 10
14.07118000000014
 20
10.19295000000005
 30
0.0
 11
10.24697999999978
 21
14.01747000000028
 31
0.0
  0
LINE
  5
BA9
330
B84
100
AcDbEntity
  8
0
  6
CONTINU
 62
     7
100
AcDbLine
 10
-10.09959999999989
 20
-13.97741000000002
 30
0.0
 11
-13.92373999999972
 21
-10.15291000000007
 31
0.0
  0
LINE
  5
BAA
330
B84
100
AcDbEntity
  8
0
  6
CONTINU
 62
     7
100
AcDbLine
 10
14.85547999999994
 20
9.258270000000209
 30
0.0
 11
14.0712000000002
 21
10.19313000000005
 31
0.0
  0
LINE
  5
BAB
330
B84
100
AcDbEntity
  8
0
  6
CONTINU
 62
     7
100
AcDbLine
 10
-13.92363999999986
 20
-10.15355000000005
 30
0.0
 11
-14.70759999999996
 21
-9.218489999999917
 31
0.0
  0
LINE
  5
BAC
330
B84
100
AcDbEntity
  8
0
  6
CONTINU
 62
     7
100
AcDbLine
 10
15.46566000000007
 20
8.201750000000117
 30
0.0
 11
14.85566000000017
 21
9.258409999999969
 31
0.0
  0
LINE
  5
BAD
330
B84
100
AcDbEntity
  8
0
  6
CONTINU
 62
     7
100
AcDbLine
 10
-14.70767999999987
 20
-9.218450000000018
 30
0.0
 11
-15.31764000000009
 21
-8.161849999999901
 31
0.0
  0
LINE
  5
BAE
330
B84
100
AcDbEntity
  8
0
  6
CONTINU
 62
     7
100
AcDbLine
 10
15.88292000000012
 20
7.055049999999994
 30
0.0
 11
15.46568000000013
 21
8.201750000000117
 31
0.0
  0
LINE
  5
BAF
330
B84
100
AcDbEntity
  8
0
  6
CONTINU
 62
     7
100
AcDbLine
 10
-15.31764000000009
 20
-8.161849999999901
 30
0.0
 11
-15.73495999999989
 21
-7.015189999999904
 31
0.0
  0
LINE
  5
BB0
330
B84
100
AcDbEntity
  8
0
  6
CONTINU
 62
     7
100
AcDbLine
 10
17.28262000000029
 20
1.83151000000015
 30
0.0
 11
15.88303999999993
 21
7.055049999999994
 31
0.0
  0
LINE
  5
BB1
330
B84
100
AcDbEntity
  8
0
  6
CONTINU
 62
     7
100
AcDbLine
 10
-15.73502000000007
 20
-7.016149999999754
 30
0.0
 11
-17.13462000000004
 21
-1.791810000000111
 31
0.0
  0
LINE
  5
BB2
330
B84
100
AcDbEntity
  8
0
  6
CONTINU
 62
     7
100
AcDbLine
 10
17.49450000000001
 20
0.6297700000000646
 30
0.0
 11
17.28269999999997
 21
1.831349999999986
 31
0.0
  0
LINE
  5
BB3
330
B84
100
AcDbEntity
  8
0
  6
CONTINU
 62
     7
100
AcDbLine
 10
-17.1347199999999
 20
-1.791609999999934
 30
0.0
 11
-17.34653999999989
 21
-0.5900699999996846
 31
0.0
  0
ARC
  5
BB4
330
B84
100
AcDbEntity
  8
0
  6
CONTINU
 62
     7
100
AcDbCircle
 10
-5.297660000000178
 20
-9.027749999999912
 30
0.0
 40
6.999739999999999
210
0.0
220
0.0
230
-1.0
100
AcDbArc
 50
224.9994509999984
 51
255.0012890000032
  0
ARC
  5
BB5
330
B84
100
AcDbEntity
  8
0
  6
CONTINU
 62
     7
100
AcDbCircle
 10
-9.121140000000309
 20
-5.203490000000044
 30
0.0
 40
7.000339999999999
210
0.0
220
0.0
230
-1.0
100
AcDbArc
 50
195.001082999999
 51
224.999237
  0
ARC
  5
BB6
330
B84
100
AcDbEntity
  8
0
  6
CONTINU
 62
     7
100
AcDbCircle
 10
-10.52140000000008
 20
0.0199100000002659
 30
0.0
 40
6.999719999999999
210
0.0
220
0.0
230
-1.0
100
AcDbArc
 50
164.9996029999992
 51
195.0007630000003
  0
ARC
  5
BB7
330
B84
100
AcDbEntity
  8
0
  6
CONTINU
 62
     7
100
AcDbCircle
 10
-9.120799999999917
 20
5.243169999999906
 30
0.0
 40
7.000739999999998
210
0.0
220
0.0
230
-1.0
100
AcDbArc
 50
135.0022740000013
 51
164.9996190000008
  0
ARC
  5
BB8
330
B84
100
AcDbEntity
  8
0
  6
CONTINU
 62
     7
100
AcDbCircle
 10
-5.298140000000216
 20
9.068490000000053
 30
0.0
 40
6.998819999999999
210
0.0
220
0.0
230
-1.0
100
AcDbArc
 50
104.9981609999995
 51
135.0034179999974
  0
ARC
  5
BB9
330
B84
100
AcDbEntity
  8
0
  6
CONTINU
 62
     7
100
AcDbCircle
 10
-0.0740999999999303
 20
10.46598999999997
 30
0.0
 40
7.001039999999998
210
0.0
220
0.0
230
-1.0
100
AcDbArc
 50
75.00256299999978
 51
104.9979859999973
  0
ARC
  5
BBA
330
B84
100
AcDbEntity
  8
0
  6
CONTINU
 62
     7
100
AcDbCircle
 10
5.14946000000009
 20
9.067270000000064
 30
0.0
 40
7.000199999999998
210
0.0
220
0.0
230
-1.0
100
AcDbArc
 50
45.00142699999851
 51
75.00075499999775
  0
ENDBLK
  5
BBE
330
B84
100
AcDbEntity
  8
0
100
AcDbBlockEnd
  0
BLOCK
  5
DDE
330
CAA
100
AcDbEntity
  8
0
100
AcDbBlockBegin
  2
A$C67486292
 70
     0
 10
0.0
 20
0.0
 30
0.0
  3
A$C67486292
  1

  0
ARC
  5
CAB
330
CAA
100
AcDbEntity
  8
0
  6
CONTINU
 62
     7
100
AcDbCircle
 10
682.2501800000002
 20
-347.2499800000003
 30
0.0
 40
2.749919999999999
100
AcDbArc
 50
270.0
 51
359.9992409999966
  0
ARC
  5
CAC
330
CAA
100
AcDbEntity
  8
0
  6
CONTINU
 62
     7
100
AcDbCircle
 10
682.2500999999999
 20
-254.4014199999992
 30
0.0
 40
2.74994
100
AcDbArc
 50
0.0013100000016808
 51
90.0
  0
ARC
  5
CAD
330
CAA
100
AcDbEntity
  8
0
  6
CONTINU
 62
     7
100
AcDbCircle
 10
-212.25008
 20
-347.2499800000003
 30
0.0
 40
2.74994
100
AcDbArc
 50
179.9974060000064
 51
270.0
  0
ARC
  5
CAE
330
CAA
100
AcDbEntity
  8
0
  6
CONTINU
 62
     7
100
AcDbCircle
 10
-212.25002
 20
-254.4014199999992
 30
0.0
 40
2.749919999999999
100
AcDbArc
 50
90.0
 51
180.0003970000035
  0
CIRCLE
  5
CAF
330
CAA
100
AcDbEntity
  8
0
  6
CONTINU
 62
     7
100
AcDbCircle
 10
624.9997
 20
-334.9995799999992
 30
0.0
 40
3.549979999999998
  0
CIRCLE
  5
CB0
330
CAA
100
AcDbEntity
  8
0
  6
CONTINU
 62
     7
100
AcDbCircle
 10
-155.0003799999999
 20
-334.9968399999991
 30
0.0
 40
3.552599999999998
  0
LINE
  5
CB1
330
CAA
100
AcDbEntity
  8
0
  6
CONTINU
 62
     7
100
AcDbLine
 10
-211.7199999999999
 20
-249.5249799999992
 30
0.0
 11
0.0
 21
0.0000199999999495
 31
0.0
  0
LINE
  5
CB2
330
CAA
100
AcDbEntity
  8
0
  6
CONTINU
 62
     7
100
AcDbLine
 10
679.6231200000001
 20
-251.3041400000002
 30
0.0
 11
681.7200200000002
 21
-249.5249799999992
 31
0.0
  0
LINE
  5
CB3
330
CAA
100
AcDbEntity
  8
0
  6
CONTINU
 62
     7
100
AcDbLine
 10
-211.7199999999999
 20
-249.5249799999992
 30
0.0
 11
-209.6232599999999
 21
-251.304159999999
 31
0.0
  0
LINE
  5
CB4
330
CAA
100
AcDbEntity
  8
0
  6
CONTINU
 62
     7
100
AcDbLine
 10
472.3237800000001
 20
-2.738499999999021
 30
0.0
 11
681.7200600000002
 21
-249.5249799999992
 31
0.0
  0
LINE
  5
CB5
330
CAA
100
AcDbEntity
  8
0
  6
CONTINU
 62
     7
100
AcDbLine
 10
685.0000800000001
 20
-347.249839999999
 30
0.0
 11
685.0000800000001
 21
-254.4013600000003
 31
0.0
  0
LINE
  5
CB6
330
CAA
100
AcDbEntity
  8
0
  6
CONTINU
 62
     7
100
AcDbLine
 10
-214.9999999999999
 20
-347.249839999999
 30
0.0
 11
-214.9999999999999
 21
-254.4013600000003
 31
0.0
  0
LINE
  5
CB7
330
CAA
100
AcDbEntity
  8
0
  6
CONTINU
 62
     7
100
AcDbLine
 10
-212.25008
 20
-349.9999400000001
 30
0.0
 11
682.25022
 21
-349.9999400000001
 31
0.0
  0
SPLINE
  5
CB8
330
CAA
100
AcDbEntity
  8
0
  6
CONTINU
 62
     7
100
AcDbSpline
210
0.0
220
0.0
230
1.0
 70
     8
 71
     5
 72
    12
 73
     6
 74
     0
 42
0.0000000001
 43
0.0000000001
 40
0.0
 40
0.0
 40
0.0
 40
0.0
 40
0.0
 40
0.0
 40
1.0
 40
1.0
 40
1.0
 40
1.0
 40
1.0
 40
1.0
 10
685.0000585951664
 20
-327.1798131892831
 30
0.0
 10
685.0000585951664
 20
-327.1058385788062
 30
0.0
 10
685.0000585951664
 20
-327.0510442664652
 30
0.0
 10
685.0000891127449
 20
-327.0149572297951
 30
0.0
 10
685.0000891127449
 20
-326.9971578520881
 30
0.0
 10
685.0000891127449
 20
-326.9971502226943
 30
0.0
  0
LINE
  5
CB9
330
CAA
100
AcDbEntity
  8
0
  6
CONTINU
 62
     7
100
AcDbLine
 10
470.0001399999999
 20
0.0000400000010359
 30
0.0
 11
472.3239
 21
-2.738659999999072
 31
0.0
  0
LINE
  5
CBA
330
CAA
100
AcDbEntity
  8
0
  6
CONTINU
 62
     7
100
AcDbLine
 10
468.7270600000001
 20
0.0000400000010359
 30
0.0
 11
470.0001399999999
 21
0.0000400000010359
 31
0.0
  0
LINE
  5
CBB
330
CAA
100
AcDbEntity
  8
0
  6
CONTINU
 62
     7
100
AcDbLine
 10
0.0
 20
0.0
 30
0.0
 11
468.7270200000001
 21
0.0
 31
0.0
  0
CIRCLE
  5
CBC
330
CAA
100
AcDbEntity
  8
0
  6
CONTINU
 62
     7
100
AcDbCircle
 10
-155.0003799999999
 20
-334.9968399999991
 30
0.0
 40
8.0
  0
CIRCLE
  5
CBD
330
CAA
100
AcDbEntity
  8
0
  6
CONTINU
 62
     7
100
AcDbCircle
 10
624.9997
 20
-334.9995799999992
 30
0.0
 40
8.0
  0
LINE
  5
CBE
330
CAA
100
AcDbEntity
  8
0
  6
CONTINU
 62
     7
100
AcDbLine
 10
682.2500999999999
 20
-251.6514800000002
 30
0.0
 11
679.6231200000001
 21
-251.3041400000002
 31
0.0
  0
LINE
  5
CBF
330
CAA
100
AcDbEntity
  8
0
  6
CONTINU
 62
     7
100
AcDbLine
 10
-212.25002
 20
-251.6515000000002
 30
0.0
 11
-209.6232599999999
 21
-251.304159999999
 31
0.0
  0
ARC
  5
CC0
330
CAA
100
AcDbEntity
  8
0
  6
CONTINU
 62
     7
100
AcDbCircle
 10
-212.50312
 20
-747.4962599999993
 30
0.0
 40
2.500059999999999
100
AcDbArc
 50
180.0128779999949
 51
270.0
  0
ARC
  5
CC1
330
CAA
100
AcDbEntity
  8
0
  6
CONTINU
 62
     7
100
AcDbCircle
 10
-192.5032999999999
 20
-747.4962599999993
 30
0.0
 40
2.500059999999999
100
AcDbArc
 50
270.0
 51
289.7960050000005
  0
ARC
  5
CC2
330
CAA
100
AcDbEntity
  8
0
  6
CONTINU
 62
     7
100
AcDbCircle
 10
682.4967200000001
 20
-747.4965199999994
 30
0.0
 40
2.499859999999999
100
AcDbArc
 50
270.0
 51
359.9980859999972
  0
CIRCLE
  5
CC3
330
CAA
100
AcDbEntity
  8
0
  6
CONTINU
 62
     7
100
AcDbCircle
 10
-155.0031599999999
 20
-736.9964599999994
 30
0.0
 40
8.0
  0
CIRCLE
  5
CC4
330
CAA
100
AcDbEntity
  8
0
  6
CONTINU
 62
     7
100
AcDbCircle
 10
624.9967
 20
-736.9964599999994
 30
0.0
 40
8.0
  0
CIRCLE
  5
CC5
330
CAA
100
AcDbEntity
  8
0
  6
CONTINU
 62
     7
100
AcDbCircle
 10
624.9967
 20
-362.9964400000001
 30
0.0
 40
8.0
  0
CIRCLE
  5
CC6
330
CAA
100
AcDbEntity
  8
0
  6
CONTINU
 62
     7
100
AcDbCircle
 10
-155.0031599999999
 20
-362.9964400000001
 30
0.0
 40
8.0
  0
CIRCLE
  5
CC7
330
CAA
100
AcDbEntity
  8
0
  6
CONTINU
 62
     7
100
AcDbCircle
 10
624.9964600000001
 20
-736.9962599999994
 30
0.0
 40
3.550059999999998
  0
CIRCLE
  5
CC8
330
CAA
100
AcDbEntity
  8
0
  6
CONTINU
 62
     7
100
AcDbCircle
 10
-155.0033799999999
 20
-736.9960599999995
 30
0.0
 40
3.548199999999998
  0
LINE
  5
CC9
330
CAA
100
AcDbEntity
  8
0
  6
CONTINU
 62
     7
100
AcDbLine
 10
684.9967000000001
 20
-747.4963999999992
 30
0.0
 11
684.9967000000001
 21
-353.0169399999991
 31
0.0
  0
LINE
  5
CCA
330
CAA
100
AcDbEntity
  8
0
  6
CONTINU
 62
     7
100
AcDbLine
 10
-215.0032799999999
 20
-747.4963999999992
 30
0.0
 11
-215.0032799999999
 21
-353.0169399999991
 31
0.0
  0
LINE
  5
CCB
330
CAA
100
AcDbEntity
  8
0
  6
CONTINU
 62
     7
100
AcDbLine
 10
-212.5032799999999
 20
-749.9963199999992
 30
0.0
 11
-192.5032399999999
 21
-749.9963199999992
 31
0.0
  0
LINE
  5
CCC
330
CAA
100
AcDbEntity
  8
0
  6
CONTINU
 62
     7
100
AcDbLine
 10
-191.6568999999999
 20
-749.9963199999992
 30
0.0
 11
682.49662
 21
-749.9963199999992
 31
0.0
  0
LINE
  5
CCD
330
CAA
100
AcDbEntity
  8
0
  6
CONTINU
 62
     7
100
AcDbLine
 10
-212.0032799999999
 20
-350.016959999999
 30
0.0
 11
681.99666
 21
-350.016959999999
 31
0.0
  0
ARC
  5
CCE
330
CAA
100
AcDbEntity
  8
0
  6
CONTINU
 62
     7
100
AcDbCircle
 10
-681.99666
 20
-353.0169399999991
 30
0.0
 40
3.0
210
0.0
220
0.0
230
-1.0
100
AcDbArc
 50
90.0
 51
179.9999849999985
  0
ARC
  5
CCF
330
CAA
100
AcDbEntity
  8
0
  6
CONTINU
 62
     7
100
AcDbCircle
 10
212.0032799999999
 20
-353.0169399999991
 30
0.0
 40
3.0
210
0.0
220
0.0
230
-1.0
100
AcDbArc
 50
0.0000220000048197
 51
90.0
  0
CIRCLE
  5
CD0
330
CAA
100
AcDbEntity
  8
0
  6
CONTINU
 62
     7
100
AcDbCircle
 10
624.9967
 20
-362.9964400000001
 30
0.0
 40
3.5
  0
CIRCLE
  5
CD1
330
CAA
100
AcDbEntity
  8
0
  6
CONTINU
 62
     7
100
AcDbCircle
 10
-155.0031599999999
 20
-362.9964400000001
 30
0.0
 40
3.5
  0
LINE
  5
CD2
330
CAA
100
AcDbEntity
  8
0
  6
AXES
 62
     7
100
AcDbLine
 10
-113.9810399999999
 20
-791.8940599999992
 30
0.0
 11
-62.07083999999986
 21
-791.8940599999992
 31
0.0
  0
LINE
  5
CD3
330
CAA
100
AcDbEntity
  8
0
  6
AXES
 62
     7
100
AcDbLine
 10
-88.02591999999989
 20
-765.9389799999993
 30
0.0
 11
-88.02591999999989
 21
-817.8491799999992
 31
0.0
  0
LINE
  5
CD4
330
CAA
100
AcDbEntity
  8
0
  6
AXES
 62
     7
100
AcDbLine
 10
531.8373999999998
 20
-791.9131399999993
 30
0.0
 11
583.9630400000002
 21
-791.9131399999993
 31
0.0
  0
LINE
  5
CD5
330
CAA
100
AcDbEntity
  8
0
  6
AXES
 62
     7
100
AcDbLine
 10
557.9002
 20
-765.8503199999994
 30
0.0
 11
557.9002
 21
-817.9759399999992
 31
0.0
  0
SPLINE
  5
CD6
330
CAA
100
AcDbEntity
  8
0
  6
CONTINU
 62
     7
100
AcDbSpline
210
0.0
220
0.0
230
1.0
 70
     8
 71
     3
 72
     8
 73
     4
 74
     0
 42
0.0000000001
 43
0.0000000001
 40
0.0
 40
0.0
 40
0.0
 40
0.0
 40
1.0
 40
1.0
 40
1.0
 40
1.0
 10
-82.41403070478179
 20
-802.3895029687706
 30
0.0
 10
-82.16372552527065
 20
-802.3232798232527
 30
0.0
 10
-81.9239183927911
 20
-802.1853403680722
 30
0.0
 10
-81.74160637835562
 20
-802.0012583340793
 30
0.0
  0
SPLINE
  5
CD7
330
CAA
100
AcDbEntity
  8
0
  6
CONTINU
 62
     7
100
AcDbSpline
210
0.0
220
0.0
230
1.0
 70
     8
 71
     3
 72
     8
 73
     4
 74
     0
 42
0.0000000001
 43
0.0000000001
 40
0.0
 40
0.0
 40
0.0
 40
0.0
 40
1.0
 40
1.0
 40
1.0
 40
1.0
 10
-77.91769274715614
 20
-798.1773447028797
 30
0.0
 10
-77.73409899442038
 20
-797.9943613017154
 30
0.0
 10
-77.59551867008969
 20
-797.7551645208075
 30
0.0
 10
-77.52947863004315
 20
-797.5049203764536
 30
0.0
  0
SPLINE
  5
CD8
330
CAA
100
AcDbEntity
  8
0
  6
CONTINU
 62
     7
100
AcDbSpline
210
0.0
220
0.0
230
1.0
 70
     8
 71
     3
 72
     8
 73
     4
 74
     0
 42
0.0000000001
 43
0.0000000001
 40
0.0
 40
0.0
 40
0.0
 40
0.0
 40
1.0
 40
1.0
 40
1.0
 40
1.0
 10
-76.12982040606162
 20
-792.2814095564299
 30
0.0
 10
-76.06179672340729
 20
-792.0315926581759
 30
0.0
 10
-76.06191879372161
 20
-791.7541878688859
 30
0.0
 10
-76.12982040606162
 20
-791.5049202870465
 30
0.0
  0
SPLINE
  5
CD9
330
CAA
100
AcDbEntity
  8
0
  6
CONTINU
 62
     7
100
AcDbSpline
210
0.0
220
0.0
230
1.0
 70
     8
 71
     3
 72
     8
 73
     4
 74
     0
 42
0.0000000001
 43
0.0000000001
 40
0.0
 40
0.0
 40
0.0
 40
0.0
 40
1.0
 40
1.0
 40
1.0
 40
1.0
 10
-77.52947863004315
 20
-786.2813484318658
 30
0.0
 10
-77.59536608219685
 20
-786.0311653226688
 30
0.0
 10
-77.7340684768418
 20
-785.7910530144034
 30
0.0
 10
-77.91772326473466
 20
-785.6089241054395
 30
0.0
  0
SPLINE
  5
CDA
330
CAA
100
AcDbEntity
  8
0
  6
CONTINU
 62
     7
100
AcDbSpline
210
0.0
220
0.0
230
1.0
 70
     8
 71
     3
 72
     8
 73
     4
 74
     0
 42
0.0000000001
 43
0.0000000001
 40
0.0
 40
0.0
 40
0.0
 40
0.0
 40
1.0
 40
1.0
 40
1.0
 40
1.0
 10
-81.7416674135128
 20
-781.7850104742399
 30
0.0
 10
-81.92404046310542
 20
-781.6009284402469
 30
0.0
 10
-82.16372552527065
 20
-781.4629279499093
 30
0.0
 10
-82.41406122236037
 20
-781.3968268747054
 30
0.0
  0
SPLINE
  5
CDB
330
CAA
100
AcDbEntity
  8
0
  6
CONTINU
 62
     7
100
AcDbSpline
210
0.0
220
0.0
230
1.0
 70
     8
 71
     3
 72
     8
 73
     4
 74
     0
 42
0.0000000001
 43
0.0000000001
 40
0.0
 40
0.0
 40
0.0
 40
0.0
 40
1.0
 40
1.0
 40
1.0
 40
1.0
 10
-87.63760255996283
 20
-779.997229685881
 30
0.0
 10
-87.88754152853096
 20
-779.9291754856484
 30
0.0
 10
-88.16415286077772
 20
-779.9291144504914
 30
0.0
 10
-88.41406131176729
 20
-779.997229685881
 30
0.0
  0
SPLINE
  5
CDC
330
CAA
100
AcDbEntity
  8
0
  6
CONTINU
 62
     7
100
AcDbSpline
210
0.0
220
0.0
230
1.0
 70
     8
 71
     3
 72
     8
 73
     4
 74
     0
 42
0.0000000001
 43
0.0000000001
 40
0.0
 40
0.0
 40
0.0
 40
0.0
 40
1.0
 40
1.0
 40
1.0
 40
1.0
 10
-93.63760264936978
 20
-781.3968268747054
 30
0.0
 10
-93.88809093435241
 20
-781.4625007038089
 30
0.0
 10
-94.12759289104625
 20
-781.6014777566613
 30
0.0
 10
-94.31002697579593
 20
-781.7850715093972
 30
0.0
  0
SPLINE
  5
CDD
330
CAA
100
AcDbEntity
  8
0
  6
CONTINU
 62
     7
100
AcDbSpline
210
0.0
220
0.0
230
1.0
 70
     8
 71
     3
 72
     8
 73
     4
 74
     0
 42
0.0000000001
 43
0.0000000001
 40
0.0
 40
0.0
 40
0.0
 40
0.0
 40
1.0
 40
1.0
 40
1.0
 40
1.0
 10
-98.1339406069954
 20
-785.6089851405966
 30
0.0
 10
-98.31805315856712
 20
-785.7906868034604
 30
0.0
 10
-98.45614520164037
 20
-786.0309211820405
 30
0.0
 10
-98.52215472410842
 20
-786.281409467023
 30
0.0
  0
SPLINE
  5
CDE
330
CAA
100
AcDbEntity
  8
0
  6
CONTINU
 62
     7
100
AcDbSpline
210
0.0
220
0.0
230
1.0
 70
     8
 71
     3
 72
     8
 73
     4
 74
     0
 42
0.0000000001
 43
0.0000000001
 40
0.0
 40
0.0
 40
0.0
 40
0.0
 40
1.0
 40
1.0
 40
1.0
 40
1.0
 10
-99.92181294808988
 20
-791.5049813222037
 30
0.0
 10
-99.9897450780084
 20
-791.7552254665578
 30
0.0
 10
-99.9897450780084
 20
-792.0314095527044
 30
0.0
 10
-99.92181294808988
 20
-792.2814095564299
 30
0.0
  0
SPLINE
  5
CDF
330
CAA
100
AcDbEntity
  8
0
  6
CONTINU
 62
     7
100
AcDbSpline
210
0.0
220
0.0
230
1.0
 70
     8
 71
     3
 72
     8
 73
     4
 74
     0
 42
0.0000000001
 43
0.0000000001
 40
0.0
 40
0.0
 40
0.0
 40
0.0
 40
1.0
 40
1.0
 40
1.0
 40
1.0
 10
-98.52215472410842
 20
-797.5049814116106
 30
0.0
 10
-98.45599261374751
 20
-797.7555917669075
 30
0.0
 10
-98.31790057067417
 20
-797.9947885478158
 30
0.0
 10
-98.13391008941685
 20
-798.1774057380369
 30
0.0
  0
SPLINE
  5
CE0
330
CAA
100
AcDbEntity
  8
0
  6
CONTINU
 62
     7
100
AcDbSpline
210
0.0
220
0.0
230
1.0
 70
     8
 71
     3
 72
     8
 73
     4
 74
     0
 42
0.0000000001
 43
0.0000000001
 40
0.0
 40
0.0
 40
0.0
 40
0.0
 40
1.0
 40
1.0
 40
1.0
 40
1.0
 10
-94.30999645821735
 20
-802.0013193692363
 30
0.0
 10
-94.12765392620338
 20
-802.1851572626008
 30
0.0
 10
-93.88802989919518
 20
-802.3232187880955
 30
0.0
 10
-93.6375721317912
 20
-802.3895029687706
 30
0.0
  0
SPLINE
  5
CE1
330
CAA
100
AcDbEntity
  8
0
  6
CONTINU
 62
     7
100
AcDbSpline
210
0.0
220
0.0
230
1.0
 70
     8
 71
     3
 72
     8
 73
     4
 74
     0
 42
0.0000000001
 43
0.0000000001
 40
0.0
 40
0.0
 40
0.0
 40
0.0
 40
1.0
 40
1.0
 40
1.0
 40
1.0
 10
-88.41403079418876
 20
-803.7891001575951
 30
0.0
 10
-88.1641833783564
 20
-803.857154357828
 30
0.0
 10
-87.88748049337373
 20
-803.8570322875139
 30
0.0
 10
-87.63757204238418
 20
-803.7891001575951
 30
0.0
  0
SPLINE
  5
CE2
330
CAA
100
AcDbEntity
  8
0
  6
CONTINU
 62
     7
100
AcDbSpline
210
0.0
220
0.0
230
1.0
 70
     8
 71
     3
 72
     8
 73
     4
 74
     0
 42
0.0000000001
 43
0.0000000001
 40
0.0
 40
0.0
 40
0.0
 40
0.0
 40
1.0
 40
1.0
 40
1.0
 40
1.0
 10
563.5859789213684
 20
-802.3895029687706
 30
0.0
 10
563.8360704778294
 20
-802.3242563857674
 30
0.0
 10
564.0763353739878
 20
-802.1842417352434
 30
0.0
 10
564.2584032477945
 20
-802.0012583340793
 30
0.0
  0
SPLINE
  5
CE3
330
CAA
100
AcDbEntity
  8
0
  6
CONTINU
 62
     7
100
AcDbSpline
210
0.0
220
0.0
230
1.0
 70
     8
 71
     3
 72
     8
 73
     4
 74
     0
 42
0.0000000001
 43
0.0000000001
 40
0.0
 40
0.0
 40
0.0
 40
0.0
 40
1.0
 40
1.0
 40
1.0
 40
1.0
 10
568.0823168789938
 20
-798.1773447028797
 30
0.0
 10
568.2662463250942
 20
-797.9946664775016
 30
0.0
 10
568.4043994033245
 20
-797.7554086614362
 30
0.0
 10
568.4705309961069
 20
-797.5049203764536
 30
0.0
  0
SPLINE
  5
CE4
330
CAA
100
AcDbEntity
  8
0
  6
CONTINU
 62
     7
100
AcDbSpline
210
0.0
220
0.0
230
1.0
 70
     8
 71
     3
 72
     8
 73
     4
 74
     0
 42
0.0000000001
 43
0.0000000001
 40
0.0
 40
0.0
 40
0.0
 40
0.0
 40
1.0
 40
1.0
 40
1.0
 40
1.0
 10
569.8701892200883
 20
-792.2814095564299
 30
0.0
 10
569.9381518675855
 20
-792.0316536933333
 30
0.0
 10
569.9383654906355
 20
-791.7543099392003
 30
0.0
 10
569.8701892200883
 20
-791.5049202870465
 30
0.0
  0
SPLINE
  5
CE5
330
CAA
100
AcDbEntity
  8
0
  6
CONTINU
 62
     7
100
AcDbSpline
210
0.0
220
0.0
230
1.0
 70
     8
 71
     3
 72
     8
 73
     4
 74
     0
 42
0.0000000001
 43
0.0000000001
 40
0.0
 40
0.0
 40
0.0
 40
0.0
 40
1.0
 40
1.0
 40
1.0
 40
1.0
 10
568.4705309961069
 20
-786.2813484318658
 30
0.0
 10
568.404429920903
 20
-786.0309822171973
 30
0.0
 10
568.2660632196226
 20
-785.791297155032
 30
0.0
 10
568.0822863614155
 20
-785.6089241054395
 30
0.0
  0
SPLINE
  5
CE6
330
CAA
100
AcDbEntity
  8
0
  6
CONTINU
 62
     7
100
AcDbSpline
210
0.0
220
0.0
230
1.0
 70
     8
 71
     3
 72
     8
 73
     4
 74
     0
 42
0.0000000001
 43
0.0000000001
 40
0.0
 40
0.0
 40
0.0
 40
0.0
 40
1.0
 40
1.0
 40
1.0
 40
1.0
 10
564.2583727302159
 20
-781.7850104742399
 30
0.0
 10
564.0760607157804
 20
-781.6008674050896
 30
0.0
 10
563.8362230657222
 20
-781.4633551960096
 30
0.0
 10
563.5859789213684
 20
-781.3968268747054
 30
0.0
  0
SPLINE
  5
CE7
330
CAA
100
AcDbEntity
  8
0
  6
CONTINU
 62
     7
100
AcDbSpline
210
0.0
220
0.0
230
1.0
 70
     8
 71
     3
 72
     8
 73
     4
 74
     0
 42
0.0000000001
 43
0.0000000001
 40
0.0
 40
0.0
 40
0.0
 40
0.0
 40
1.0
 40
1.0
 40
1.0
 40
1.0
 10
558.3624070661873
 20
-779.997229685881
 30
0.0
 10
558.1124680976192
 20
-779.9296027317484
 30
0.0
 10
557.8359788356864
 20
-779.9285651340767
 30
0.0
 10
557.5859483143829
 20
-779.997229685881
 30
0.0
  0
SPLINE
  5
CE8
330
CAA
100
AcDbEntity
  8
0
  6
CONTINU
 62
     7
100
AcDbSpline
210
0.0
220
0.0
230
1.0
 70
     8
 71
     3
 72
     8
 73
     4
 74
     0
 42
0.0000000001
 43
0.0000000001
 40
0.0
 40
0.0
 40
0.0
 40
0.0
 40
1.0
 40
1.0
 40
1.0
 40
1.0
 10
552.3624069767803
 20
-781.3968268747054
 30
0.0
 10
552.1117050687478
 20
-781.4637214069522
 30
0.0
 10
551.8726303581539
 20
-781.6004401589895
 30
0.0
 10
551.6899826503543
 20
-781.7850715093972
 30
0.0
  0
SPLINE
  5
CE9
330
CAA
100
AcDbEntity
  8
0
  6
CONTINU
 62
     7
100
AcDbSpline
210
0.0
220
0.0
230
1.0
 70
     8
 71
     3
 72
     8
 73
     4
 74
     0
 42
0.0000000001
 43
0.0000000001
 40
0.0
 40
0.0
 40
0.0
 40
0.0
 40
1.0
 40
1.0
 40
1.0
 40
1.0
 10
547.8660690191548
 20
-785.6089851405966
 30
0.0
 10
547.6822311257904
 20
-785.7911140495604
 30
0.0
 10
547.5439559772454
 20
-786.0309822171973
 30
0.0
 10
547.4778549020419
 20
-786.281409467023
 30
0.0
  0
SPLINE
  5
CEA
330
CAA
100
AcDbEntity
  8
0
  6
CONTINU
 62
     7
100
AcDbSpline
210
0.0
220
0.0
230
1.0
 70
     8
 71
     3
 72
     8
 73
     4
 74
     0
 42
0.0000000001
 43
0.0000000001
 40
0.0
 40
0.0
 40
0.0
 40
0.0
 40
1.0
 40
1.0
 40
1.0
 40
1.0
 10
546.0781966780603
 20
-791.5049813222037
 30
0.0
 10
546.0101424778273
 20
-791.7546761501434
 30
0.0
 10
546.0102035129844
 20
-792.0315926581759
 30
0.0
 10
546.0781966780603
 20
-792.2814095564299
 30
0.0
  0
SPLINE
  5
CEB
330
CAA
100
AcDbEntity
  8
0
  6
CONTINU
 62
     7
100
AcDbSpline
210
0.0
220
0.0
230
1.0
 70
     8
 71
     3
 72
     8
 73
     4
 74
     0
 42
0.0000000001
 43
0.0000000001
 40
0.0
 40
0.0
 40
0.0
 40
0.0
 40
1.0
 40
1.0
 40
1.0
 40
1.0
 10
547.4778549020419
 20
-797.5049814116106
 30
0.0
 10
547.5438339069311
 20
-797.7555917669075
 30
0.0
 10
547.6822311257904
 20
-797.9948495829729
 30
0.0
 10
547.8660995367333
 20
-798.1774057380369
 30
0.0
  0
SPLINE
  5
CEC
330
CAA
100
AcDbEntity
  8
0
  6
CONTINU
 62
     7
100
AcDbSpline
210
0.0
220
0.0
230
1.0
 70
     8
 71
     3
 72
     8
 73
     4
 74
     0
 42
0.0000000001
 43
0.0000000001
 40
0.0
 40
0.0
 40
0.0
 40
0.0
 40
1.0
 40
1.0
 40
1.0
 40
1.0
 10
551.6900131679328
 20
-802.0013193692363
 30
0.0
 10
551.8724472526825
 20
-802.184791051658
 30
0.0
 10
552.1119492093763
 20
-802.3240122451388
 30
0.0
 10
552.3624374943588
 20
-802.3895029687706
 30
0.0
  0
SPLINE
  5
CED
330
CAA
100
AcDbEntity
  8
0
  6
CONTINU
 62
     7
100
AcDbSpline
210
0.0
220
0.0
230
1.0
 70
     8
 71
     3
 72
     8
 73
     4
 74
     0
 42
0.0000000001
 43
0.0000000001
 40
0.0
 40
0.0
 40
0.0
 40
0.0
 40
1.0
 40
1.0
 40
1.0
 40
1.0
 10
557.5859788319613
 20
-803.7891001575951
 30
0.0
 10
557.8357041774794
 20
-803.8572764281422
 30
0.0
 10
558.1127732734049
 20
-803.8567881468852
 30
0.0
 10
558.362437583766
 20
-803.7891001575951
 30
0.0
  0
POLYLINE
  5
CEE
330
CAA
100
AcDbEntity
  8
0
  6
CONTINU
 62
     7
100
AcDb2dPolyline
 66
     1
 10
0.0
 20
0.0
 30
0.0
  0
VERTEX
  5
CEF
330
CEE
100
AcDbEntity
  8
0
100
AcDbVertex
100
AcDb2dVertex
 10
683.9733599999999
 20
-1260.974039999999
 30
0.0
  0
VERTEX
  5
CF0
330
CEE
100
AcDbEntity
  8
0
100
AcDbVertex
100
AcDb2dVertex
 10
684.1744400000001
 20
-1261.265179999999
 30
0.0
  0
VERTEX
  5
CF1
330
CEE
100
AcDbEntity
  8
0
100
AcDbVertex
100
AcDb2dVertex
 10
684.3322800000001
 20
-1261.581799999999
 30
0.0
  0
VERTEX
  5
CF2
330
CEE
100
AcDbEntity
  8
0
100
AcDbVertex
100
AcDb2dVertex
 10
684.4439800000002
 20
-1261.917399999999
 30
0.0
  0
VERTEX
  5
CF3
330
CEE
100
AcDbEntity
  8
0
100
AcDbVertex
100
AcDb2dVertex
 10
684.5070800000002
 20
-1262.265539999999
 30
0.0
  0
VERTEX
  5
CF4
330
CEE
100
AcDbEntity
  8
0
100
AcDbVertex
100
AcDb2dVertex
 10
684.52058
 20
-1262.619079999999
 30
0.0
  0
VERTEX
  5
CF5
330
CEE
100
AcDbEntity
  8
0
100
AcDbVertex
100
AcDb2dVertex
 10
684.4838800000002
 20
-1262.970879999999
 30
0.0
  0
SEQEND
  5
CF6
330
CEE
100
AcDbEntity
  8
0
  0
POLYLINE
  5
CF7
330
CAA
100
AcDbEntity
  8
0
  6
CONTINU
 62
     7
100
AcDb2dPolyline
 66
     1
 10
0.0
 20
0.0
 30
0.0
  0
VERTEX
  5
CF8
330
CF7
100
AcDbEntity
  8
0
100
AcDbVertex
100
AcDb2dVertex
 10
-214.8676199999999
 20
-1262.974239999999
 30
0.0
  0
VERTEX
  5
CF9
330
CF7
100
AcDbEntity
  8
0
100
AcDbVertex
100
AcDb2dVertex
 10
-214.9042399999999
 20
-1262.622439999999
 30
0.0
  0
VERTEX
  5
CFA
330
CF7
100
AcDbEntity
  8
0
100
AcDbVertex
100
AcDb2dVertex
 10
-214.8907799999999
 20
-1262.268819999999
 30
0.0
  0
VERTEX
  5
CFB
330
CF7
100
AcDbEntity
  8
0
100
AcDbVertex
100
AcDb2dVertex
 10
-214.8276799999999
 20
-1261.920759999999
 30
0.0
  0
VERTEX
  5
CFC
330
CF7
100
AcDbEntity
  8
0
100
AcDbVertex
100
AcDb2dVertex
 10
-214.7159399999999
 20
-1261.585139999999
 30
0.0
  0
VERTEX
  5
CFD
330
CF7
100
AcDbEntity
  8
0
100
AcDbVertex
100
AcDb2dVertex
 10
-214.5580999999999
 20
-1261.268519999999
 30
0.0
  0
VERTEX
  5
CFE
330
CF7
100
AcDbEntity
  8
0
100
AcDbVertex
100
AcDb2dVertex
 10
-214.3570199999999
 20
-1260.9774
 30
0.0
  0
SEQEND
  5
CFF
330
CF7
100
AcDbEntity
  8
0
  0
LINE
  5
D00
330
CAA
100
AcDbEntity
  8
0
  6
CONTINU
 62
     7
100
AcDbLine
 10
612.6887599999999
 20
-1655.835719999999
 30
0.0
 11
-142.8867199999999
 21
-1655.835719999999
 31
0.0
  0
LINE
  5
D01
330
CAA
100
AcDbEntity
  8
0
  6
CONTINU
 62
     7
100
AcDbLine
 10
683.47452
 20
-1166.893379999999
 30
0.0
 11
-213.5259599999999
 21
-1166.893379999999
 31
0.0
  0
LINE
  5
D02
330
CAA
100
AcDbEntity
  8
0
  6
CONTINU
 62
     7
100
AcDbLine
 10
-216.0259199999999
 20
-938.6433999999992
 30
0.0
 11
-235.0258599999998
 21
-938.6433999999992
 31
0.0
  0
LINE
  5
D03
330
CAA
100
AcDbEntity
  8
0
  6
CONTINU
 62
     7
100
AcDbLine
 10
558.5840800000002
 20
-809.3136399999995
 30
0.0
 11
557.3639399999999
 21
-809.3135799999995
 31
0.0
  0
LINE
  5
D04
330
CAA
100
AcDbEntity
  8
0
  6
CONTINU
 62
     7
100
AcDbLine
 10
-87.41591999999988
 20
-809.3136399999995
 30
0.0
 11
-88.6360799999999
 21
-809.3135799999995
 31
0.0
  0
LINE
  5
D05
330
CAA
100
AcDbEntity
  8
0
  6
CONTINU
 62
     7
100
AcDbLine
 10
-216.0259199999999
 20
-804.6433999999992
 30
0.0
 11
-235.0258599999998
 21
-804.6433999999992
 31
0.0
  0
LINE
  5
D06
330
CAA
100
AcDbEntity
  8
0
  6
CONTINU
 62
     7
100
AcDbLine
 10
-87.63757999999995
 20
-803.7890999999994
 30
0.0
 11
-88.41401999999993
 21
-803.7891599999992
 31
0.0
  0
LINE
  5
D07
330
CAA
100
AcDbEntity
  8
0
  6
CONTINU
 62
     7
100
AcDbLine
 10
558.5844600000001
 20
-774.4727599999992
 30
0.0
 11
557.3642600000002
 21
-774.4726799999994
 31
0.0
  0
LINE
  5
D08
330
CAA
100
AcDbEntity
  8
0
  6
CONTINU
 62
     7
100
AcDbLine
 10
-87.41557999999988
 20
-774.4727599999992
 30
0.0
 11
-88.6357399999999
 21
-774.4726799999994
 31
0.0
  0
LINE
  5
D09
330
CAA
100
AcDbEntity
  8
0
  6
CONTINU
 62
     7
100
AcDbLine
 10
683.4744800000001
 20
-751.893419999999
 30
0.0
 11
-213.5259199999999
 21
-751.893419999999
 31
0.0
  0
LINE
  5
D0A
330
CAA
100
AcDbEntity
  8
0
  6
CONTINU
 62
     7
100
AcDbLine
 10
685.9745199999999
 20
-1164.393379999999
 30
0.0
 11
685.9745199999999
 21
-754.393419999999
 31
0.0
  0
LINE
  5
D0B
330
CAA
100
AcDbEntity
  8
0
  6
CONTINU
 62
     7
100
AcDbLine
 10
658.8096000000001
 20
-1229.550619999999
 30
0.0
 11
658.8096000000001
 21
-1166.892999999999
 31
0.0
  0
LINE
  5
D0C
330
CAA
100
AcDbEntity
  8
0
  6
CONTINU
 62
     7
100
AcDbLine
 10
575.39464
 20
-792.5034599999994
 30
0.0
 11
575.3946599999998
 21
-791.2832599999992
 31
0.0
  0
LINE
  5
D0D
330
CAA
100
AcDbEntity
  8
0
  6
CONTINU
 62
     7
100
AcDbLine
 10
564.5242399999999
 20
-795.6747799999995
 30
0.0
 11
564.5241200000001
 21
-788.1113999999994
 31
0.0
  0
LINE
  5
D0E
330
CAA
100
AcDbEntity
  8
0
  6
CONTINU
 62
     7
100
AcDbLine
 10
546.0782
 20
-792.2813999999995
 30
0.0
 11
546.0782
 21
-791.5049599999994
 31
0.0
  0
LINE
  5
D0F
330
CAA
100
AcDbEntity
  8
0
  6
CONTINU
 62
     7
100
AcDbLine
 10
551.4240800000003
 20
-795.6747399999991
 30
0.0
 11
551.4242600000003
 21
-788.1113999999994
 31
0.0
  0
LINE
  5
D10
330
CAA
100
AcDbEntity
  8
0
  6
CONTINU
 62
     7
100
AcDbLine
 10
540.55372
 20
-792.5030799999992
 30
0.0
 11
540.55376
 21
-791.2828799999991
 31
0.0
  0
LINE
  5
D11
330
CAA
100
AcDbEntity
  8
0
  6
CONTINU
 62
     7
100
AcDbLine
 10
-70.60537999999993
 20
-792.5034599999994
 30
0.0
 11
-70.60533999999989
 21
-791.2832599999992
 31
0.0
  0
LINE
  5
D12
330
CAA
100
AcDbEntity
  8
0
  6
CONTINU
 62
     7
100
AcDbLine
 10
-76.12985999999991
 20
-792.2813999999995
 30
0.0
 11
-76.12985999999991
 21
-791.5049199999993
 31
0.0
  0
LINE
  5
D13
330
CAA
100
AcDbEntity
  8
0
  6
CONTINU
 62
     7
100
AcDbLine
 10
-81.47577999999986
 20
-795.6747799999995
 30
0.0
 11
-81.47589999999985
 21
-788.1113999999994
 31
0.0
  0
LINE
  5
D14
330
CAA
100
AcDbEntity
  8
0
  6
CONTINU
 62
     7
100
AcDbLine
 10
-99.92177999999988
 20
-792.2813999999995
 30
0.0
 11
-99.92181999999992
 21
-791.5049599999994
 31
0.0
  0
LINE
  5
D15
330
CAA
100
AcDbEntity
  8
0
  6
CONTINU
 62
     7
100
AcDbLine
 10
-94.57591999999991
 20
-795.6747399999991
 30
0.0
 11
-94.57575999999994
 21
-788.1113999999994
 31
0.0
  0
LINE
  5
D16
330
CAA
100
AcDbEntity
  8
0
  6
CONTINU
 62
     7
100
AcDbLine
 10
-189.1906199999999
 20
-1229.024119999999
 30
0.0
 11
-189.1906199999999
 21
-1166.892759999999
 31
0.0
  0
LINE
  5
D17
330
CAA
100
AcDbEntity
  8
0
  6
CONTINU
 62
     7
100
AcDbLine
 10
-216.0259599999999
 20
-1164.393379999999
 30
0.0
 11
-216.0259599999999
 21
-754.393419999999
 31
0.0
  0
LINE
  5
D18
330
CAA
100
AcDbEntity
  8
0
  6
CONTINU
 62
     7
100
AcDbLine
 10
-235.0258599999998
 20
-938.6433999999992
 30
0.0
 11
-235.0258599999998
 21
-804.6433999999992
 31
0.0
  0
LINE
  5
D19
330
CAA
100
AcDbEntity
  8
0
  6
CONTINU
 62
     7
100
AcDbLine
 10
684.4840399999999
 20
-1262.971019999999
 30
0.0
 11
615.6432399999999
 21
-1653.356619999999
 31
0.0
  0
LINE
  5
D1A
330
CAA
100
AcDbEntity
  8
0
  6
CONTINU
 62
     7
100
AcDbLine
 10
575.39454
 20
-792.5030399999992
 30
0.0
 11
575.1828400000001
 21
-793.7043599999992
 31
0.0
  0
LINE
  5
D1B
330
CAA
100
AcDbEntity
  8
0
  6
CONTINU
 62
     7
100
AcDbLine
 10
540.7657600000003
 20
-790.0812799999993
 30
0.0
 11
540.5537799999999
 21
-791.2826399999993
 31
0.0
  0
LINE
  5
D1C
330
CAA
100
AcDbEntity
  8
0
  6
CONTINU
 62
     7
100
AcDbLine
 10
-70.60523999999992
 20
-792.5034599999994
 30
0.0
 11
-70.81735999999991
 21
-793.7044399999994
 31
0.0
  0
LINE
  5
D1D
330
CAA
100
AcDbEntity
  8
0
  6
CONTINU
 62
     7
100
AcDbLine
 10
-105.2342799999999
 20
-790.0812799999993
 30
0.0
 11
-105.4461199999999
 21
-791.2828799999991
 31
0.0
  0
LINE
  5
D1E
330
CAA
100
AcDbEntity
  8
0
  6
CONTINU
 62
     7
100
AcDbLine
 10
569.8703599999999
 20
-792.2802999999993
 30
0.0
 11
568.4705799999997
 21
-797.5048799999995
 31
0.0
  0
LINE
  5
D1F
330
CAA
100
AcDbEntity
  8
0
  6
CONTINU
 62
     7
100
AcDbLine
 10
575.1832200000001
 20
-793.7043199999995
 30
0.0
 11
573.7830199999999
 21
-798.9285599999995
 31
0.0
  0
LINE
  5
D20
330
CAA
100
AcDbEntity
  8
0
  6
CONTINU
 62
     7
100
AcDbLine
 10
547.4782400000001
 20
-786.2803599999993
 30
0.0
 11
546.07844
 21
-791.5043599999993
 31
0.0
  0
LINE
  5
D21
330
CAA
100
AcDbEntity
  8
0
  6
CONTINU
 62
     7
100
AcDbLine
 10
542.1655799999999
 20
-784.8569799999993
 30
0.0
 11
540.7658199999999
 21
-790.0805999999993
 31
0.0
  0
LINE
  5
D22
330
CAA
100
AcDbEntity
  8
0
  6
CONTINU
 62
     7
100
AcDbLine
 10
-76.12997999999989
 20
-792.2807999999994
 30
0.0
 11
-77.52969999999989
 21
-797.5047999999994
 31
0.0
  0
LINE
  5
D23
330
CAA
100
AcDbEntity
  8
0
  6
CONTINU
 62
     7
100
AcDbLine
 10
-70.8175599999999
 20
-793.7046399999992
 30
0.0
 11
-72.2172799999999
 21
-798.9285599999995
 31
0.0
  0
LINE
  5
D24
330
CAA
100
AcDbEntity
  8
0
  6
CONTINU
 62
     7
100
AcDbLine
 10
-98.52205999999988
 20
-786.2804999999992
 30
0.0
 11
-99.9219399999999
 21
-791.5046599999994
 31
0.0
  0
LINE
  5
D25
330
CAA
100
AcDbEntity
  8
0
  6
CONTINU
 62
     7
100
AcDbLine
 10
-103.8352199999999
 20
-784.8571599999994
 30
0.0
 11
-105.2345999999998
 21
-790.0813199999994
 31
0.0
  0
LINE
  5
D26
330
CAA
100
AcDbEntity
  8
0
  6
CONTINU
 62
     7
100
AcDbLine
 10
568.4704400000001
 20
-797.5050199999992
 30
0.0
 11
568.38102
 21
-797.7508399999993
 31
0.0
  0
LINE
  5
D27
330
CAA
100
AcDbEntity
  8
0
  6
CONTINU
 62
     7
100
AcDbLine
 10
547.5673600000003
 20
-786.0356799999992
 30
0.0
 11
547.4778800000002
 21
-786.2814199999994
 31
0.0
  0
LINE
  5
D28
330
CAA
100
AcDbEntity
  8
0
  6
CONTINU
 62
     7
100
AcDbLine
 10
542.5826199999999
 20
-783.7113399999991
 30
0.0
 11
542.1653400000001
 21
-784.8576999999994
 31
0.0
  0
LINE
  5
D29
330
CAA
100
AcDbEntity
  8
0
  6
CONTINU
 62
     7
100
AcDbLine
 10
-77.52955999999989
 20
-797.5051799999994
 30
0.0
 11
-77.6189399999999
 21
-797.7506999999994
 31
0.0
  0
LINE
  5
D2A
330
CAA
100
AcDbEntity
  8
0
  6
CONTINU
 62
     7
100
AcDbLine
 10
-72.21705999999989
 20
-798.9285599999995
 30
0.0
 11
-72.6342199999999
 21
-800.0752199999991
 31
0.0
  0
LINE
  5
D2B
330
CAA
100
AcDbEntity
  8
0
  6
CONTINU
 62
     7
100
AcDbLine
 10
-98.43255999999989
 20
-786.0357999999994
 30
0.0
 11
-98.52213999999996
 21
-786.2813399999994
 31
0.0
  0
LINE
  5
D2C
330
CAA
100
AcDbEntity
  8
0
  6
CONTINU
 62
     7
100
AcDbLine
 10
-103.4176199999998
 20
-783.7112799999994
 30
0.0
 11
-103.8346399999999
 21
-784.8576999999994
 31
0.0
  0
LINE
  5
D2D
330
CAA
100
AcDbEntity
  8
0
  6
CONTINU
 62
     7
100
AcDbLine
 10
573.3657
 20
-800.0753599999994
 30
0.0
 11
572.7555600000001
 21
-801.1319199999995
 31
0.0
  0
LINE
  5
D2E
330
CAA
100
AcDbEntity
  8
0
  6
CONTINU
 62
     7
100
AcDbLine
 10
547.6980600000002
 20
-785.8091599999993
 30
0.0
 11
547.5671999999999
 21
-786.0355999999995
 31
0.0
  0
LINE
  5
D2F
330
CAA
100
AcDbEntity
  8
0
  6
CONTINU
 62
     7
100
AcDbLine
 10
-98.30191999999989
 20
-785.8091599999993
 30
0.0
 11
-98.43279999999992
 21
-786.0355599999994
 31
0.0
  0
LINE
  5
D30
330
CAA
100
AcDbEntity
  8
0
  6
CONTINU
 62
     7
100
AcDbLine
 10
568.3811400000003
 20
-797.7506599999993
 30
0.0
 11
568.2504000000002
 21
-797.9770999999991
 31
0.0
  0
LINE
  5
D31
330
CAA
100
AcDbEntity
  8
0
  6
CONTINU
 62
     7
100
AcDbLine
 10
543.1927599999998
 20
-782.6544399999993
 30
0.0
 11
542.5826800000002
 21
-783.7110799999995
 31
0.0
  0
LINE
  5
D32
330
CAA
100
AcDbEntity
  8
0
  6
CONTINU
 62
     7
100
AcDbLine
 10
-77.61885999999989
 20
-797.7506599999993
 30
0.0
 11
-77.74961999999987
 21
-797.9770199999993
 31
0.0
  0
LINE
  5
D33
330
CAA
100
AcDbEntity
  8
0
  6
CONTINU
 62
     7
100
AcDbLine
 10
-189.5211399999999
 20
-1229.963299999999
 30
0.0
 11
-214.3572199999999
 21
-1260.977239999999
 31
0.0
  0
LINE
  5
D34
330
CAA
100
AcDbEntity
  8
0
  6
CONTINU
 62
     7
100
AcDbLine
 10
568.2508599999998
 20
-797.9762199999994
 30
0.0
 11
568.08302
 21
-798.1772199999993
 31
0.0
  0
LINE
  5
D35
330
CAA
100
AcDbEntity
  8
0
  6
CONTINU
 62
     7
100
AcDbLine
 10
547.8664800000002
 20
-785.6086199999992
 30
0.0
 11
547.6981800000002
 21
-785.8088599999994
 31
0.0
  0
LINE
  5
D36
330
CAA
100
AcDbEntity
  8
0
  6
CONTINU
 62
     7
100
AcDbLine
 10
-77.74969999999995
 20
-797.9763999999993
 30
0.0
 11
-77.91769999999991
 21
-798.1771799999993
 31
0.0
  0
LINE
  5
D37
330
CAA
100
AcDbEntity
  8
0
  6
CONTINU
 62
     7
100
AcDbLine
 10
-98.13383999999985
 20
-785.6087399999993
 30
0.0
 11
-98.30209999999986
 21
-785.8085599999992
 31
0.0
  0
LINE
  5
D38
330
CAA
100
AcDbEntity
  8
0
  6
CONTINU
 62
     7
100
AcDbLine
 10
572.7554800000001
 20
-801.1318799999994
 30
0.0
 11
571.9713000000003
 21
-802.0664799999989
 31
0.0
  0
LINE
  5
D39
330
CAA
100
AcDbEntity
  8
0
  6
CONTINU
 62
     7
100
AcDbLine
 10
543.9773600000002
 20
-781.7196999999993
 30
0.0
 11
543.1927599999998
 21
-782.6547199999994
 31
0.0
  0
LINE
  5
D3A
330
CAA
100
AcDbEntity
  8
0
  6
CONTINU
 62
     7
100
AcDbLine
 10
-73.24441999999989
 20
-801.1318199999994
 30
0.0
 11
-74.02873999999989
 21
-802.0667999999993
 31
0.0
  0
LINE
  5
D3B
330
CAA
100
AcDbEntity
  8
0
  6
CONTINU
 62
     7
100
AcDbLine
 10
-102.0231199999999
 20
-781.7196999999993
 30
0.0
 11
-102.8072599999999
 21
-782.6542599999994
 31
0.0
  0
LINE
  5
D3C
330
CAA
100
AcDbEntity
  8
0
  6
CONTINU
 62
     7
100
AcDbLine
 10
568.0822400000002
 20
-798.1774799999993
 30
0.0
 11
564.2580800000001
 21
-802.0026999999995
 31
0.0
  0
LINE
  5
D3D
330
CAA
100
AcDbEntity
  8
0
  6
CONTINU
 62
     7
100
AcDbLine
 10
571.9713400000001
 20
-802.0665599999993
 30
0.0
 11
568.14662
 21
-805.8923199999991
 31
0.0
  0
LINE
  5
D3E
330
CAA
100
AcDbEntity
  8
0
  6
CONTINU
 62
     7
100
AcDbLine
 10
551.6898200000001
 20
-781.7852999999994
 30
0.0
 11
547.8649
 21
-785.6107999999993
 31
0.0
  0
LINE
  5
D3F
330
CAA
100
AcDbEntity
  8
0
  6
CONTINU
 62
     7
100
AcDbLine
 10
547.8008600000001
 20
-777.8964199999991
 30
0.0
 11
543.9764000000001
 21
-781.7214199999991
 31
0.0
  0
LINE
  5
D40
330
CAA
100
AcDbEntity
  8
0
  6
CONTINU
 62
     7
100
AcDbLine
 10
-77.91743999999993
 20
-798.1779399999994
 30
0.0
 11
-81.74089999999983
 21
-802.0026999999995
 31
0.0
  0
LINE
  5
D41
330
CAA
100
AcDbEntity
  8
0
  6
CONTINU
 62
     7
100
AcDbLine
 10
-74.02865999999988
 20
-802.0672799999994
 30
0.0
 11
-77.85181999999991
 21
-805.8923199999991
 31
0.0
  0
LINE
  5
D42
330
CAA
100
AcDbEntity
  8
0
  6
CONTINU
 62
     7
100
AcDbLine
 10
-94.30925999999992
 20
-781.7865999999995
 30
0.0
 11
-98.1331999999999
 21
-785.6105799999994
 31
0.0
  0
LINE
  5
D43
330
CAA
100
AcDbEntity
  8
0
  6
CONTINU
 62
     7
100
AcDbLine
 10
-98.1986599999999
 20
-777.8969399999994
 30
0.0
 11
-102.0218599999999
 21
-781.7217199999993
 31
0.0
  0
LINE
  5
D44
330
CAA
100
AcDbEntity
  8
0
  6
CONTINU
 62
     7
100
AcDbLine
 10
564.2584799999999
 20
-802.0011799999993
 30
0.0
 11
564.05814
 21
-802.1692999999995
 31
0.0
  0
LINE
  5
D45
330
CAA
100
AcDbEntity
  8
0
  6
CONTINU
 62
     7
100
AcDbLine
 10
551.8904600000001
 20
-781.6166199999989
 30
0.0
 11
551.6900200000001
 21
-781.7850799999994
 31
0.0
  0
LINE
  5
D46
330
CAA
100
AcDbEntity
  8
0
  6
CONTINU
 62
     7
100
AcDbLine
 10
-81.74185999999991
 20
-802.0009599999994
 30
0.0
 11
-81.94201999999989
 21
-802.1690199999994
 31
0.0
  0
LINE
  5
D47
330
CAA
100
AcDbEntity
  8
0
  6
CONTINU
 62
     7
100
AcDbLine
 10
-94.10975999999989
 20
-781.6164999999992
 30
0.0
 11
-94.3101399999999
 21
-781.7849999999992
 31
0.0
  0
LINE
  5
D48
330
CAA
100
AcDbEntity
  8
0
  6
CONTINU
 62
     7
100
AcDbLine
 10
568.1472799999998
 20
-805.8907999999995
 30
0.0
 11
567.2124799999997
 21
-806.6749399999993
 31
0.0
  0
LINE
  5
D49
330
CAA
100
AcDbEntity
  8
0
  6
CONTINU
 62
     7
100
AcDbLine
 10
548.7357600000001
 20
-777.1117999999993
 30
0.0
 11
547.8011800000002
 21
-777.8957199999994
 31
0.0
  0
LINE
  5
D4A
330
CAA
100
AcDbEntity
  8
0
  6
CONTINU
 62
     7
100
AcDbLine
 10
-77.85265999999984
 20
-805.8905399999995
 30
0.0
 11
-78.78745999999991
 21
-806.6750999999992
 31
0.0
  0
LINE
  5
D4B
330
CAA
100
AcDbEntity
  8
0
  6
CONTINU
 62
     7
100
AcDbLine
 10
-97.26435999999992
 20
-777.1115399999994
 30
0.0
 11
-98.1987999999999
 21
-777.8958399999994
 31
0.0
  0
LINE
  5
D4C
330
CAA
100
AcDbEntity
  8
0
  6
CONTINU
 62
     7
100
AcDbLine
 10
557.9741600000003
 20
-784.3297399999993
 30
0.0
 11
551.4242600000003
 21
-788.1113799999992
 31
0.0
  0
LINE
  5
D4D
330
CAA
100
AcDbEntity
  8
0
  6
CONTINU
 62
     7
100
AcDbLine
 10
564.5242399999999
 20
-795.6747799999995
 30
0.0
 11
557.9742999999999
 21
-799.4565799999994
 31
0.0
  0
LINE
  5
D4E
330
CAA
100
AcDbEntity
  8
0
  6
CONTINU
 62
     7
100
AcDbLine
 10
-88.02591999999989
 20
-784.3297399999993
 30
0.0
 11
-94.57587999999992
 21
-788.1112999999994
 31
0.0
  0
LINE
  5
D4F
330
CAA
100
AcDbEntity
  8
0
  6
CONTINU
 62
     7
100
AcDbLine
 10
-81.47577999999986
 20
-795.6748399999995
 30
0.0
 11
-88.02575999999993
 21
-799.4565199999994
 31
0.0
  0
LINE
  5
D50
330
CAA
100
AcDbEntity
  8
0
  6
CONTINU
 62
     7
100
AcDbLine
 10
564.0581799999999
 20
-802.1692999999995
 30
0.0
 11
563.83192
 21
-802.2998999999995
 31
0.0
  0
LINE
  5
D51
330
CAA
100
AcDbEntity
  8
0
  6
CONTINU
 62
     7
100
AcDbLine
 10
552.11682
 20
-781.4861199999993
 30
0.0
 11
551.8903800000002
 21
-781.6168199999992
 31
0.0
  0
LINE
  5
D52
330
CAA
100
AcDbEntity
  8
0
  6
CONTINU
 62
     7
100
AcDbLine
 10
-81.94197999999991
 20
-802.1690199999994
 30
0.0
 11
-82.16837999999986
 21
-802.2999399999994
 31
0.0
  0
LINE
  5
D53
330
CAA
100
AcDbEntity
  8
0
  6
CONTINU
 62
     7
100
AcDbLine
 10
-93.88335999999988
 20
-781.4859199999991
 30
0.0
 11
-94.10975999999989
 21
-781.6169199999992
 31
0.0
  0
LINE
  5
D54
330
CAA
100
AcDbEntity
  8
0
  6
CONTINU
 62
     7
100
AcDbLine
 10
566.1559200000001
 20
-807.2848399999994
 30
0.0
 11
565.0093599999999
 21
-807.7021399999992
 31
0.0
  0
LINE
  5
D55
330
CAA
100
AcDbEntity
  8
0
  6
CONTINU
 62
     7
100
AcDbLine
 10
552.36244
 20
-781.3967799999995
 30
0.0
 11
552.11662
 21
-781.4863199999993
 31
0.0
  0
LINE
  5
D56
330
CAA
100
AcDbEntity
  8
0
  6
CONTINU
 62
     7
100
AcDbLine
 10
-79.84411999999991
 20
-807.2848799999992
 30
0.0
 11
-80.99055999999988
 21
-807.7021399999992
 31
0.0
  0
LINE
  5
D57
330
CAA
100
AcDbEntity
  8
0
  6
CONTINU
 62
     7
100
AcDbLine
 10
-93.6375999999999
 20
-781.3967799999995
 30
0.0
 11
-93.88335999999988
 21
-781.4863199999993
 31
0.0
  0
LINE
  5
D58
330
CAA
100
AcDbEntity
  8
0
  6
CONTINU
 62
     7
100
AcDbLine
 10
563.8316999999999
 20
-802.3002199999993
 30
0.0
 11
563.5858599999998
 21
-802.3895199999994
 31
0.0
  0
LINE
  5
D59
330
CAA
100
AcDbEntity
  8
0
  6
CONTINU
 62
     7
100
AcDbLine
 10
550.9391000000001
 20
-776.0841999999994
 30
0.0
 11
549.79252
 21
-776.5014999999992
 31
0.0
  0
LINE
  5
D5A
330
CAA
100
AcDbEntity
  8
0
  6
CONTINU
 62
     7
100
AcDbLine
 10
-82.16833999999989
 20
-802.3002599999992
 30
0.0
 11
-82.41389999999986
 21
-802.3896399999992
 31
0.0
  0
LINE
  5
D5B
330
CAA
100
AcDbEntity
  8
0
  6
CONTINU
 62
     7
100
AcDbLine
 10
-95.06087999999989
 20
-776.0843199999992
 30
0.0
 11
-96.20749999999993
 21
-776.5015599999992
 31
0.0
  0
LINE
  5
D5C
330
CAA
100
AcDbEntity
  8
0
  6
CONTINU
 62
     7
100
AcDbLine
 10
557.5858799999999
 20
-779.9972799999994
 30
0.0
 11
552.3621000000002
 21
-781.3972399999991
 31
0.0
  0
LINE
  5
D5D
330
CAA
100
AcDbEntity
  8
0
  6
CONTINU
 62
     7
100
AcDbLine
 10
556.16236
 20
-774.6848999999993
 30
0.0
 11
550.93884
 21
-776.0855399999995
 31
0.0
  0
LINE
  5
D5E
330
CAA
100
AcDbEntity
  8
0
  6
CONTINU
 62
     7
100
AcDbLine
 10
563.5856200000001
 20
-802.3895599999995
 30
0.0
 11
558.3622400000002
 21
-803.7895199999994
 31
0.0
  0
LINE
  5
D5F
330
CAA
100
AcDbEntity
  8
0
  6
CONTINU
 62
     7
100
AcDbLine
 10
565.0096200000001
 20
-807.7026599999992
 30
0.0
 11
559.7853199999999
 21
-809.1021599999994
 31
0.0
  0
LINE
  5
D60
330
CAA
100
AcDbEntity
  8
0
  6
CONTINU
 62
     7
100
AcDbLine
 10
-88.41363999999989
 20
-779.9978999999995
 30
0.0
 11
-93.63717999999991
 21
-781.3973199999995
 31
0.0
  0
LINE
  5
D61
330
CAA
100
AcDbEntity
  8
0
  6
CONTINU
 62
     7
100
AcDbLine
 10
-89.83697999999989
 20
-774.6856999999994
 30
0.0
 11
-95.06071999999988
 21
-776.0855399999995
 31
0.0
  0
LINE
  5
D62
330
CAA
100
AcDbEntity
  8
0
  6
CONTINU
 62
     7
100
AcDbLine
 10
-82.41389999999986
 20
-802.3901599999993
 30
0.0
 11
-87.63701999999993
 21
-803.7894799999994
 31
0.0
  0
LINE
  5
D63
330
CAA
100
AcDbEntity
  8
0
  6
CONTINU
 62
     7
100
AcDbLine
 10
-80.99051999999991
 20
-807.7032399999994
 30
0.0
 11
-86.21401999999994
 21
-809.1021999999995
 31
0.0
  0
LINE
  5
D64
330
CAA
100
AcDbEntity
  8
0
  6
CONTINU
 62
     7
100
AcDbLine
 10
559.7857800000001
 20
-809.1013599999994
 30
0.0
 11
558.58406
 21
-809.3132599999993
 31
0.0
  0
LINE
  5
D65
330
CAA
100
AcDbEntity
  8
0
  6
CONTINU
 62
     7
100
AcDbLine
 10
-86.21431999999989
 20
-809.1012799999992
 30
0.0
 11
-87.41595999999992
 21
-809.3131999999995
 31
0.0
  0
LINE
  5
D66
330
CAA
100
AcDbEntity
  8
0
  6
CONTINU
 62
     7
100
AcDbLine
 10
557.3643200000001
 20
-774.4726399999993
 30
0.0
 11
556.1626799999999
 21
-774.6844799999993
 31
0.0
  0
LINE
  5
D67
330
CAA
100
AcDbEntity
  8
0
  6
CONTINU
 62
     7
100
AcDbLine
 10
-88.63581999999993
 20
-774.4726399999993
 30
0.0
 11
-89.83733999999989
 21
-774.6844799999993
 31
0.0
  0
LINE
  5
D68
330
CAA
100
AcDbEntity
  8
0
  6
CONTINU
 62
     7
100
AcDbLine
 10
559.7861200000001
 20
-774.6847799999992
 30
0.0
 11
558.5844600000001
 21
-774.4729599999994
 31
0.0
  0
LINE
  5
D69
330
CAA
100
AcDbEntity
  8
0
  6
CONTINU
 62
     7
100
AcDbLine
 10
557.3639399999999
 20
-809.3134999999993
 30
0.0
 11
556.16224
 21
-809.1014799999994
 31
0.0
  0
LINE
  5
D6A
330
CAA
100
AcDbEntity
  8
0
  6
CONTINU
 62
     7
100
AcDbLine
 10
-86.21375999999989
 20
-774.6845599999995
 30
0.0
 11
-87.41549999999987
 21
-774.4729599999994
 31
0.0
  0
LINE
  5
D6B
330
CAA
100
AcDbEntity
  8
0
  6
CONTINU
 62
     7
100
AcDbLine
 10
-88.63595999999992
 20
-809.3137999999992
 30
0.0
 11
-89.83771999999985
 21
-809.1018999999993
 31
0.0
  0
LINE
  5
D6C
330
CAA
100
AcDbEntity
  8
0
  6
CONTINU
 62
     7
100
AcDbLine
 10
563.5861600000001
 20
-781.3968999999994
 30
0.0
 11
558.3624399999999
 21
-779.9963599999992
 31
0.0
  0
LINE
  5
D6D
330
CAA
100
AcDbEntity
  8
0
  6
CONTINU
 62
     7
100
AcDbLine
 10
565.0096200000001
 20
-776.0843199999992
 30
0.0
 11
559.7857800000001
 21
-774.6846599999993
 31
0.0
  0
LINE
  5
D6E
330
CAA
100
AcDbEntity
  8
0
  6
CONTINU
 62
     7
100
AcDbLine
 10
557.5863199999999
 20
-803.7882799999994
 30
0.0
 11
552.3624800000002
 21
-802.3892199999991
 31
0.0
  0
LINE
  5
D6F
330
CAA
100
AcDbEntity
  8
0
  6
CONTINU
 62
     7
100
AcDbLine
 10
556.1622800000002
 20
-809.1015999999994
 30
0.0
 11
550.9387600000001
 21
-807.7020199999992
 31
0.0
  0
LINE
  5
D70
330
CAA
100
AcDbEntity
  8
0
  6
CONTINU
 62
     7
100
AcDbLine
 10
-82.41403999999986
 20
-781.3969399999993
 30
0.0
 11
-87.63773999999989
 21
-779.9964799999989
 31
0.0
  0
LINE
  5
D71
330
CAA
100
AcDbEntity
  8
0
  6
CONTINU
 62
     7
100
AcDbLine
 10
-80.99051999999991
 20
-776.0838199999994
 30
0.0
 11
-86.21419999999991
 21
-774.6844399999994
 31
0.0
  0
LINE
  5
D72
330
CAA
100
AcDbEntity
  8
0
  6
CONTINU
 62
     7
100
AcDbLine
 10
-88.4140599999999
 20
-803.7884799999991
 30
0.0
 11
-93.63687999999987
 21
-802.3893199999994
 31
0.0
  0
LINE
  5
D73
330
CAA
100
AcDbEntity
  8
0
  6
CONTINU
 62
     7
100
AcDbLine
 10
-89.8378199999999
 20
-809.1007799999994
 30
0.0
 11
-95.0614399999999
 21
-807.7014399999994
 31
0.0
  0
LINE
  5
D74
330
CAA
100
AcDbEntity
  8
0
  6
CONTINU
 62
     7
100
AcDbLine
 10
566.1561600000001
 20
-776.5017599999993
 30
0.0
 11
565.0095599999999
 21
-776.0843999999995
 31
0.0
  0
LINE
  5
D75
330
CAA
100
AcDbEntity
  8
0
  6
CONTINU
 62
     7
100
AcDbLine
 10
552.3624800000002
 20
-802.3893599999993
 30
0.0
 11
552.11676
 21
-802.3000199999993
 31
0.0
  0
LINE
  5
D76
330
CAA
100
AcDbEntity
  8
0
  6
CONTINU
 62
     7
100
AcDbLine
 10
-93.63763999999994
 20
-802.3893199999994
 30
0.0
 11
-93.88327999999987
 21
-802.2999399999994
 31
0.0
  0
LINE
  5
D77
330
CAA
100
AcDbEntity
  8
0
  6
CONTINU
 62
     7
100
AcDbLine
 10
563.8316800000002
 20
-781.4862399999995
 30
0.0
 11
563.5860200000003
 21
-781.3967799999995
 31
0.0
  0
LINE
  5
D78
330
CAA
100
AcDbEntity
  8
0
  6
CONTINU
 62
     7
100
AcDbLine
 10
550.9387799999999
 20
-807.7020599999993
 30
0.0
 11
549.7921400000001
 21
-807.2846799999993
 31
0.0
  0
LINE
  5
D79
330
CAA
100
AcDbEntity
  8
0
  6
CONTINU
 62
     7
100
AcDbLine
 10
-79.84377999999984
 20
-776.5015999999993
 30
0.0
 11
-80.99039999999986
 21
-776.0843199999992
 31
0.0
  0
LINE
  5
D7A
330
CAA
100
AcDbEntity
  8
0
  6
CONTINU
 62
     7
100
AcDbLine
 10
564.0580800000001
 20
-781.6169599999994
 30
0.0
 11
563.8316399999999
 21
-781.4862399999995
 31
0.0
  0
LINE
  5
D7B
330
CAA
100
AcDbEntity
  8
0
  6
CONTINU
 62
     7
100
AcDbLine
 10
552.1166599999999
 20
-802.3003999999994
 30
0.0
 11
551.8902399999999
 21
-802.1693999999994
 31
0.0
  0
LINE
  5
D7C
330
CAA
100
AcDbEntity
  8
0
  6
CONTINU
 62
     7
100
AcDbLine
 10
-81.94193999999987
 20
-781.6170399999991
 30
0.0
 11
-82.16833999999989
 21
-781.4864199999995
 31
0.0
  0
LINE
  5
D7D
330
CAA
100
AcDbEntity
  8
0
  6
CONTINU
 62
     7
100
AcDbLine
 10
-93.88327999999987
 20
-802.3003999999994
 30
0.0
 11
-94.10979999999986
 21
-802.1695999999995
 31
0.0
  0
LINE
  5
D7E
330
CAA
100
AcDbEntity
  8
0
  6
CONTINU
 62
     7
100
AcDbLine
 10
564.5238800000002
 20
-788.1115599999991
 30
0.0
 11
557.9741600000003
 21
-784.3298599999992
 31
0.0
  0
LINE
  5
D7F
330
CAA
100
AcDbEntity
  8
0
  6
CONTINU
 62
     7
100
AcDbLine
 10
-81.47593999999989
 20
-788.1113799999992
 30
0.0
 11
-88.02565999999989
 21
-784.3297399999993
 31
0.0
  0
LINE
  5
D80
330
CAA
100
AcDbEntity
  8
0
  6
CONTINU
 62
     7
100
AcDbLine
 10
567.2130000000001
 20
-777.1115399999994
 30
0.0
 11
566.1561600000001
 21
-776.5017999999994
 31
0.0
  0
LINE
  5
D81
330
CAA
100
AcDbEntity
  8
0
  6
CONTINU
 62
     7
100
AcDbLine
 10
549.79228
 20
-807.2846799999993
 30
0.0
 11
548.7355800000001
 21
-806.6747999999993
 31
0.0
  0
LINE
  5
D82
330
CAA
100
AcDbEntity
  8
0
  6
CONTINU
 62
     7
100
AcDbLine
 10
-78.78717999999991
 20
-777.1114199999993
 30
0.0
 11
-79.84393999999993
 21
-776.5014999999992
 31
0.0
  0
LINE
  5
D83
330
CAA
100
AcDbEntity
  8
0
  6
CONTINU
 62
     7
100
AcDbLine
 10
-96.20799999999988
 20
-807.2845799999994
 30
0.0
 11
-97.26449999999992
 21
-806.6746399999995
 31
0.0
  0
LINE
  5
D84
330
CAA
100
AcDbEntity
  8
0
  6
CONTINU
 62
     7
100
AcDbLine
 10
557.9743399999999
 20
-799.4561599999992
 30
0.0
 11
551.42438
 21
-795.6744599999995
 31
0.0
  0
LINE
  5
D85
330
CAA
100
AcDbEntity
  8
0
  6
CONTINU
 62
     7
100
AcDbLine
 10
-88.02591999999989
 20
-799.4558999999992
 30
0.0
 11
-94.57597999999988
 21
-795.6744599999995
 31
0.0
  0
LINE
  5
D86
330
CAA
100
AcDbEntity
  8
0
  6
CONTINU
 62
     7
100
AcDbLine
 10
-81.7415199999999
 20
-781.7850799999994
 30
0.0
 11
-81.94193999999987
 21
-781.6169599999994
 31
0.0
  0
LINE
  5
D87
330
CAA
100
AcDbEntity
  8
0
  6
CONTINU
 62
     7
100
AcDbLine
 10
-94.10989999999989
 20
-802.1692999999995
 30
0.0
 11
-94.30971999999988
 21
-802.0013399999994
 31
0.0
  0
LINE
  5
D88
330
CAA
100
AcDbEntity
  8
0
  6
CONTINU
 62
     7
100
AcDbLine
 10
564.2582400000001
 20
-781.7851999999994
 30
0.0
 11
564.0582800000002
 21
-781.6169199999992
 31
0.0
  0
LINE
  5
D89
330
CAA
100
AcDbEntity
  8
0
  6
CONTINU
 62
     7
100
AcDbLine
 10
568.1475600000001
 20
-777.8962199999991
 30
0.0
 11
567.2127999999999
 21
-777.1114199999993
 31
0.0
  0
LINE
  5
D8A
330
CAA
100
AcDbEntity
  8
0
  6
CONTINU
 62
     7
100
AcDbLine
 10
551.8901800000001
 20
-802.1692999999995
 30
0.0
 11
551.6899600000001
 21
-802.0013399999994
 31
0.0
  0
LINE
  5
D8B
330
CAA
100
AcDbEntity
  8
0
  6
CONTINU
 62
     7
100
AcDbLine
 10
548.7354800000002
 20
-806.6745999999993
 30
0.0
 11
547.8006599999999
 21
-805.8901799999993
 31
0.0
  0
LINE
  5
D8C
330
CAA
100
AcDbEntity
  8
0
  6
CONTINU
 62
     7
100
AcDbLine
 10
-77.85243999999988
 20
-777.8960999999995
 30
0.0
 11
-78.78705999999993
 21
-777.1119199999993
 31
0.0
  0
LINE
  5
D8D
330
CAA
100
AcDbEntity
  8
0
  6
CONTINU
 62
     7
100
AcDbLine
 10
-97.26443999999993
 20
-806.6744799999993
 30
0.0
 11
-98.19917999999994
 21
-805.8901799999993
 31
0.0
  0
LINE
  5
D8E
330
CAA
100
AcDbEntity
  8
0
  6
CONTINU
 62
     7
100
AcDbLine
 10
568.0821800000003
 20
-785.6090399999994
 30
0.0
 11
564.2581199999999
 21
-781.7849599999995
 31
0.0
  0
LINE
  5
D8F
330
CAA
100
AcDbEntity
  8
0
  6
CONTINU
 62
     7
100
AcDbLine
 10
571.9713800000001
 20
-781.7201799999993
 30
0.0
 11
568.1471799999997
 21
-777.8956599999991
 31
0.0
  0
LINE
  5
D90
330
CAA
100
AcDbEntity
  8
0
  6
CONTINU
 62
     7
100
AcDbLine
 10
551.69014
 20
-802.0014799999993
 30
0.0
 11
547.86618
 21
-798.1773199999994
 31
0.0
  0
LINE
  5
D91
330
CAA
100
AcDbEntity
  8
0
  6
CONTINU
 62
     7
100
AcDbLine
 10
547.8006000000001
 20
-805.8905399999995
 30
0.0
 11
543.9764600000002
 21
-802.0660399999995
 31
0.0
  0
LINE
  5
D92
330
CAA
100
AcDbEntity
  8
0
  6
CONTINU
 62
     7
100
AcDbLine
 10
-77.91789999999983
 20
-785.6089399999995
 30
0.0
 11
-81.74173999999991
 21
-781.7848799999994
 31
0.0
  0
LINE
  5
D93
330
CAA
100
AcDbEntity
  8
0
  6
CONTINU
 62
     7
100
AcDbLine
 10
-74.02837999999994
 20
-781.7196999999993
 30
0.0
 11
-77.85277999999991
 21
-777.8953399999994
 31
0.0
  0
LINE
  5
D94
330
CAA
100
AcDbEntity
  8
0
  6
CONTINU
 62
     7
100
AcDbLine
 10
-94.30963999999994
 20
-802.0017599999993
 30
0.0
 11
-98.13363999999992
 21
-798.1772799999991
 31
0.0
  0
LINE
  5
D95
330
CAA
100
AcDbEntity
  8
0
  6
CONTINU
 62
     7
100
AcDbLine
 10
-98.19917999999994
 20
-805.8904999999993
 30
0.0
 11
-102.0232599999999
 21
-802.0657599999992
 31
0.0
  0
LINE
  5
D96
330
CAA
100
AcDbEntity
  8
0
  6
CONTINU
 62
     7
100
AcDbLine
 10
568.2504000000002
 20
-785.8091599999993
 30
0.0
 11
568.0822800000002
 21
-785.6089399999995
 31
0.0
  0
LINE
  5
D97
330
CAA
100
AcDbEntity
  8
0
  6
CONTINU
 62
     7
100
AcDbLine
 10
-77.74973999999992
 20
-785.8090399999992
 30
0.0
 11
-77.91789999999983
 21
-785.6087399999993
 31
0.0
  0
LINE
  5
D98
330
CAA
100
AcDbEntity
  8
0
  6
CONTINU
 62
     7
100
AcDbLine
 10
683.9733200000002
 20
-1260.974119999999
 30
0.0
 11
658.8096000000001
 21
-1229.550619999999
 31
0.0
  0
LINE
  5
D99
330
CAA
100
AcDbEntity
  8
0
  6
CONTINU
 62
     7
100
AcDbLine
 10
572.75568
 20
-782.6548599999991
 30
0.0
 11
571.9714000000002
 21
-781.7199999999993
 31
0.0
  0
LINE
  5
D9A
330
CAA
100
AcDbEntity
  8
0
  6
CONTINU
 62
     7
100
AcDbLine
 10
547.86576
 20
-798.1773199999994
 30
0.0
 11
547.69804
 21
-797.9771999999995
 31
0.0
  0
LINE
  5
D9B
330
CAA
100
AcDbEntity
  8
0
  6
CONTINU
 62
     7
100
AcDbLine
 10
543.9765600000002
 20
-802.0666799999995
 30
0.0
 11
543.1926
 21
-801.1316199999992
 31
0.0
  0
LINE
  5
D9C
330
CAA
100
AcDbEntity
  8
0
  6
CONTINU
 62
     7
100
AcDbLine
 10
-73.2443599999999
 20
-782.6547199999994
 30
0.0
 11
-74.0285399999999
 21
-781.7199999999993
 31
0.0
  0
LINE
  5
D9D
330
CAA
100
AcDbEntity
  8
0
  6
CONTINU
 62
     7
100
AcDbLine
 10
-98.13379999999988
 20
-798.1771799999993
 30
0.0
 11
-98.30163999999996
 21
-797.9772799999993
 31
0.0
  0
LINE
  5
D9E
330
CAA
100
AcDbEntity
  8
0
  6
CONTINU
 62
     7
100
AcDbLine
 10
-102.0229599999999
 20
-802.0664399999992
 30
0.0
 11
-102.8073399999999
 21
-801.1317399999994
 31
0.0
  0
LINE
  5
D9F
330
CAA
100
AcDbEntity
  8
0
  6
CONTINU
 62
     7
100
AcDbLine
 10
547.6980200000001
 20
-797.9770999999991
 30
0.0
 11
547.5673
 21
-797.7506999999994
 31
0.0
  0
LINE
  5
DA0
330
CAA
100
AcDbEntity
  8
0
  6
CONTINU
 62
     7
100
AcDbLine
 10
-77.61897999999987
 20
-786.0357999999994
 30
0.0
 11
-77.74969999999995
 21
-785.8091599999993
 31
0.0
  0
LINE
  5
DA1
330
CAA
100
AcDbEntity
  8
0
  6
CONTINU
 62
     7
100
AcDbLine
 10
-98.30179999999991
 20
-797.9771999999995
 30
0.0
 11
-98.43287999999994
 21
-797.7505799999994
 31
0.0
  0
LINE
  5
DA2
330
CAA
100
AcDbEntity
  8
0
  6
CONTINU
 62
     7
100
AcDbLine
 10
568.3811
 20
-786.0356799999992
 30
0.0
 11
568.2502799999999
 21
-785.8091599999993
 31
0.0
  0
LINE
  5
DA3
330
CAA
100
AcDbEntity
  8
0
  6
CONTINU
 62
     7
100
AcDbLine
 10
573.36586
 20
-783.7113799999992
 30
0.0
 11
572.7558600000001
 21
-782.6547199999994
 31
0.0
  0
LINE
  5
DA4
330
CAA
100
AcDbEntity
  8
0
  6
CONTINU
 62
     7
100
AcDbLine
 10
543.1925200000002
 20
-801.1315799999994
 30
0.0
 11
542.5825599999999
 21
-800.0749799999992
 31
0.0
  0
LINE
  5
DA5
330
CAA
100
AcDbEntity
  8
0
  6
CONTINU
 62
     7
100
AcDbLine
 10
-72.63403999999986
 20
-783.7117599999993
 30
0.0
 11
-73.24423999999992
 21
-782.6548199999993
 31
0.0
  0
LINE
  5
DA6
330
CAA
100
AcDbEntity
  8
0
  6
CONTINU
 62
     7
100
AcDbLine
 10
568.4705000000001
 20
-786.2814599999994
 30
0.0
 11
568.3810000000002
 21
-786.0358999999994
 31
0.0
  0
LINE
  5
DA7
330
CAA
100
AcDbEntity
  8
0
  6
CONTINU
 62
     7
100
AcDbLine
 10
547.5674
 20
-797.7506999999994
 30
0.0
 11
547.4777400000001
 21
-797.5049799999992
 31
0.0
  0
LINE
  5
DA8
330
CAA
100
AcDbEntity
  8
0
  6
CONTINU
 62
     7
100
AcDbLine
 10
-77.52939999999987
 20
-786.2812799999994
 30
0.0
 11
-77.61889999999985
 21
-786.0357999999994
 31
0.0
  0
LINE
  5
DA9
330
CAA
100
AcDbEntity
  8
0
  6
CONTINU
 62
     7
100
AcDbLine
 10
-98.43271999999991
 20
-797.7509999999993
 30
0.0
 11
-98.52213999999996
 21
-797.5049199999991
 31
0.0
  0
LINE
  5
DAA
330
CAA
100
AcDbEntity
  8
0
  6
CONTINU
 62
     7
100
AcDbLine
 10
573.7831200000001
 20
-784.8580799999994
 30
0.0
 11
573.3658800000001
 21
-783.7113799999992
 31
0.0
  0
LINE
  5
DAB
330
CAA
100
AcDbEntity
  8
0
  6
CONTINU
 62
     7
100
AcDbLine
 10
542.5825599999999
 20
-800.0749799999992
 30
0.0
 11
542.1652400000001
 21
-798.9283199999992
 31
0.0
  0
LINE
  5
DAC
330
CAA
100
AcDbEntity
  8
0
  6
CONTINU
 62
     7
100
AcDbLine
 10
-72.21677999999989
 20
-784.8583199999994
 30
0.0
 11
-72.63403999999986
 21
-783.7116599999992
 31
0.0
  0
LINE
  5
DAD
330
CAA
100
AcDbEntity
  8
0
  6
CONTINU
 62
     7
100
AcDbLine
 10
-103.4174199999999
 20
-800.0751799999992
 30
0.0
 11
-103.8346799999999
 21
-798.9283599999993
 31
0.0
  0
LINE
  5
DAE
330
CAA
100
AcDbEntity
  8
0
  6
CONTINU
 62
     7
100
AcDbLine
 10
569.8699000000001
 20
-791.5056599999994
 30
0.0
 11
568.4702800000002
 21
-786.2811599999994
 31
0.0
  0
LINE
  5
DAF
330
CAA
100
AcDbEntity
  8
0
  6
CONTINU
 62
     7
100
AcDbLine
 10
575.1828200000003
 20
-790.0816199999992
 30
0.0
 11
573.78324
 21
-784.8580799999994
 31
0.0
  0
LINE
  5
DB0
330
CAA
100
AcDbEntity
  8
0
  6
CONTINU
 62
     7
100
AcDbLine
 10
547.4775400000002
 20
-797.5055999999993
 30
0.0
 11
546.07804
 21
-792.2813399999994
 31
0.0
  0
LINE
  5
DB1
330
CAA
100
AcDbEntity
  8
0
  6
CONTINU
 62
     7
100
AcDbLine
 10
542.1651799999999
 20
-798.9292799999991
 30
0.0
 11
540.7655799999999
 21
-793.7049399999994
 31
0.0
  0
LINE
  5
DB2
330
CAA
100
AcDbEntity
  8
0
  6
CONTINU
 62
     7
100
AcDbLine
 10
-76.12955999999988
 20
-791.5057199999993
 30
0.0
 11
-77.52939999999987
 21
-786.2818399999994
 31
0.0
  0
LINE
  5
DB3
330
CAA
100
AcDbEntity
  8
0
  6
CONTINU
 62
     7
100
AcDbLine
 10
-70.81721999999991
 20
-790.0814799999992
 30
0.0
 11
-72.21689999999987
 21
-784.8583799999993
 31
0.0
  0
LINE
  5
DB4
330
CAA
100
AcDbEntity
  8
0
  6
CONTINU
 62
     7
100
AcDbLine
 10
-98.52201999999991
 20
-797.5053399999994
 30
0.0
 11
-99.92171999999989
 21
-792.2816399999994
 31
0.0
  0
LINE
  5
DB5
330
CAA
100
AcDbEntity
  8
0
  6
CONTINU
 62
     7
100
AcDbLine
 10
-103.8349799999999
 20
-798.9283599999993
 30
0.0
 11
-105.2344799999999
 21
-793.7048199999992
 31
0.0
  0
LINE
  5
DB6
330
CAA
100
AcDbEntity
  8
0
  6
CONTINU
 62
     7
100
AcDbLine
 10
575.3947000000001
 20
-791.2833599999993
 30
0.0
 11
575.1828999999999
 21
-790.0817799999994
 31
0.0
  0
LINE
  5
DB7
330
CAA
100
AcDbEntity
  8
0
  6
CONTINU
 62
     7
100
AcDbLine
 10
540.7654800000001
 20
-793.7047399999993
 30
0.0
 11
540.5536600000001
 21
-792.503199999999
 31
0.0
  0
LINE
  5
DB8
330
CAA
100
AcDbEntity
  8
0
  6
CONTINU
 62
     7
100
AcDbLine
 10
-105.2343999999998
 20
-793.7051199999992
 30
0.0
 11
-105.4461599999999
 21
-792.5033399999994
 31
0.0
  0
ARC
  5
DB9
330
CAA
100
AcDbEntity
  8
0
  6
CONTINU
 62
     7
100
AcDbCircle
 10
190.6898799999999
 20
-1229.024419999999
 30
0.0
 40
1.499179999999999
210
0.0
220
0.0
230
-1.0
100
AcDbArc
 50
180.0957030000018
 51
218.6971440000037
  0
ARC
  5
DBA
330
CAA
100
AcDbEntity
  8
0
  6
CONTINU
 62
     7
100
AcDbCircle
 10
-660.3098400000003
 20
-1229.023959999999
 30
0.0
 40
1.500199999999999
210
0.0
220
0.0
230
-1.0
100
AcDbArc
 50
321.3134119999977
 51
0.0779680000030014
  0
ARC
  5
DBB
330
CAA
100
AcDbEntity
  8
0
  6
CONTINU
 62
     7
100
AcDbCircle
 10
213.5257599999999
 20
-754.3934599999992
 30
0.0
 40
2.500159999999999
210
0.0
220
0.0
230
-1.0
100
AcDbArc
 50
0.0013519999954971
 51
90.0
  0
ARC
  5
DBC
330
CAA
100
AcDbEntity
  8
0
  6
CONTINU
 62
     7
100
AcDbCircle
 10
193.5258399999998
 20
-1164.393459999999
 30
0.0
 40
2.499859999999999
210
0.0
220
0.0
230
-1.0
100
AcDbArc
 50
269.3823010000004
 51
270.0
  0
ARC
  5
DBD
330
CAA
100
AcDbEntity
  8
0
  6
CONTINU
 62
     7
100
AcDbCircle
 10
213.5260199999999
 20
-1164.393519999999
 30
0.0
 40
2.49984
210
0.0
220
0.0
230
-1.0
100
AcDbArc
 50
270.0
 51
0.0029779999988161
  0
CIRCLE
  5
DBE
330
CAA
100
AcDbEntity
  8
0
  6
CONTINU
 62
     7
100
AcDbCircle
 10
155.0257399999998
 20
-1153.892819999999
 30
0.0
 40
3.548199999999998
210
0.0
220
0.0
230
-1.0
  0
CIRCLE
  5
DBF
330
CAA
100
AcDbEntity
  8
0
  6
CONTINU
 62
     7
100
AcDbCircle
 10
-624.9743000000001
 20
-764.8931799999994
 30
0.0
 40
3.549979999999998
210
0.0
220
0.0
230
-1.0
  0
CIRCLE
  5
DC0
330
CAA
100
AcDbEntity
  8
0
  6
CONTINU
 62
     7
100
AcDbCircle
 10
155.0256199999999
 20
-764.8931799999994
 30
0.0
 40
3.549979999999998
210
0.0
220
0.0
230
-1.0
  0
CIRCLE
  5
DC1
330
CAA
100
AcDbEntity
  8
0
  6
CONTINU
 62
     7
100
AcDbCircle
 10
-624.9743000000001
 20
-1153.892819999999
 30
0.0
 40
3.548199999999998
210
0.0
220
0.0
230
-1.0
  0
ARC
  5
DC2
330
CAA
100
AcDbEntity
  8
0
  6
CONTINU
 62
     7
100
AcDbCircle
 10
-563.1978600000002
 20
-800.9408799999993
 30
0.0
 40
6.999739999999999
210
0.0
220
0.0
230
-1.0
100
AcDbArc
 50
224.9994510000013
 51
255.0012889999992
  0
ARC
  5
DC3
330
CAA
100
AcDbEntity
  8
0
  6
CONTINU
 62
     7
100
AcDbCircle
 10
-567.0213400000003
 20
-797.1166199999994
 30
0.0
 40
7.000339999999999
210
0.0
220
0.0
230
-1.0
100
AcDbArc
 50
195.0010830000055
 51
224.999237
  0
ARC
  5
DC4
330
CAA
100
AcDbEntity
  8
0
  6
CONTINU
 62
     7
100
AcDbCircle
 10
-568.4216000000001
 20
-791.8932199999991
 30
0.0
 40
6.999719999999999
210
0.0
220
0.0
230
-1.0
100
AcDbArc
 50
164.999602999996
 51
195.0007629999942
  0
ARC
  5
DC5
330
CAA
100
AcDbEntity
  8
0
  6
CONTINU
 62
     7
100
AcDbCircle
 10
-567.0209999999999
 20
-786.6699599999995
 30
0.0
 40
7.000739999999998
210
0.0
220
0.0
230
-1.0
100
AcDbArc
 50
135.0022739999984
 51
164.999619000004
  0
ARC
  5
DC6
330
CAA
100
AcDbEntity
  8
0
  6
CONTINU
 62
     7
100
AcDbCircle
 10
-563.1983400000002
 20
-782.8446399999993
 30
0.0
 40
6.998819999999999
210
0.0
220
0.0
230
-1.0
100
AcDbArc
 50
104.9981610000004
 51
135.0034180000031
  0
ARC
  5
DC7
330
CAA
100
AcDbEntity
  8
0
  6
CONTINU
 62
     7
100
AcDbCircle
 10
-557.9742999999999
 20
-781.4471399999994
 30
0.0
 40
7.001039999999998
210
0.0
220
0.0
230
-1.0
100
AcDbArc
 50
75.00256299999893
 51
104.9979859999996
  0
ARC
  5
DC8
330
CAA
100
AcDbEntity
  8
0
  6
CONTINU
 62
     7
100
AcDbCircle
 10
-552.7507399999999
 20
-782.8458599999993
 30
0.0
 40
7.000199999999998
210
0.0
220
0.0
230
-1.0
100
AcDbArc
 50
45.0014270000014
 51
75.00075500000017
  0
ARC
  5
DC9
330
CAA
100
AcDbEntity
  8
0
  6
CONTINU
 62
     7
100
AcDbCircle
 10
82.80241999999987
 20
-800.9403799999994
 30
0.0
 40
7.000239999999998
210
0.0
220
0.0
230
-1.0
100
AcDbArc
 50
225.0010070000036
 51
254.9998780000004
  0
ARC
  5
DCA
330
CAA
100
AcDbEntity
  8
0
  6
CONTINU
 62
     7
100
AcDbCircle
 10
78.97871999999984
 20
-797.1165399999993
 30
0.0
 40
7.00042
210
0.0
220
0.0
230
-1.0
100
AcDbArc
 50
195.001388999999
 51
224.9993740000008
  0
ARC
  5
DCB
330
CAA
100
AcDbEntity
  8
0
  6
CONTINU
 62
     7
100
AcDbCircle
 10
77.57837999999991
 20
-791.8932199999991
 30
0.0
 40
6.999719999999999
210
0.0
220
0.0
230
-1.0
100
AcDbArc
 50
164.999602999996
 51
195.0007629999942
  0
ARC
  5
DCC
330
CAA
100
AcDbEntity
  8
0
  6
CONTINU
 62
     7
100
AcDbCircle
 10
88.02573999999992
 20
-781.4471399999994
 30
0.0
 40
7.001039999999998
210
0.0
220
0.0
230
-1.0
100
AcDbArc
 50
75.00231900000182
 51
104.9977490000003
  0
ARC
  5
DCD
330
CAA
100
AcDbEntity
  8
0
  6
CONTINU
 62
     7
100
AcDbCircle
 10
93.24927999999985
 20
-782.8458599999993
 30
0.0
 40
7.000199999999998
210
0.0
220
0.0
230
-1.0
100
AcDbArc
 50
45.0014270000014
 51
75.00048800000003
  0
ARC
  5
DCE
330
CAA
100
AcDbEntity
  8
0
  6
CONTINU
 62
     7
100
AcDbCircle
 10
97.0729399999999
 20
-786.6697199999991
 30
0.0
 40
7.000399999999999
210
0.0
220
0.0
230
-1.0
100
AcDbArc
 50
15.00103900000576
 51
44.99881400000293
  0
ARC
  5
DCF
330
CAA
100
AcDbEntity
  8
0
  6
CONTINU
 62
     7
100
AcDbCircle
 10
98.47323999999993
 20
-791.8931199999994
 30
0.0
 40
6.999719999999999
210
0.0
220
0.0
230
-1.0
100
AcDbArc
 50
344.9996349999983
 51
15.00079300000344
  0
ARC
  5
DD0
330
CAA
100
AcDbEntity
  8
0
  6
CONTINU
 62
     7
100
AcDbCircle
 10
97.07261999999992
 20
-797.1163799999994
 30
0.0
 40
7.000739999999998
210
0.0
220
0.0
230
-1.0
100
AcDbArc
 50
315.002335000002
 51
344.9991310000009
  0
ARC
  5
DD1
330
CAA
100
AcDbEntity
  8
0
  6
CONTINU
 62
     7
100
AcDbCircle
 10
93.25017999999991
 20
-800.9420599999993
 30
0.0
 40
6.9984
210
0.0
220
0.0
230
-1.0
100
AcDbArc
 50
284.9973909999992
 51
315.0046880000004
  0
CIRCLE
  5
DD2
330
CAA
100
AcDbEntity
  8
0
  6
CONTINU
 62
     7
100
AcDbCircle
 10
-624.9741
 20
-764.8931799999994
 30
0.0
 40
8.000019999999999
210
0.0
220
0.0
230
-1.0
  0
CIRCLE
  5
DD3
330
CAA
100
AcDbEntity
  8
0
  6
CONTINU
 62
     7
100
AcDbCircle
 10
155.0258999999999
 20
-764.8931799999994
 30
0.0
 40
8.000019999999999
210
0.0
220
0.0
230
-1.0
  0
CIRCLE
  5
DD4
330
CAA
100
AcDbEntity
  8
0
  6
CONTINU
 62
     7
100
AcDbCircle
 10
155.0258999999999
 20
-1153.893199999999
 30
0.0
 40
8.000019999999999
210
0.0
220
0.0
230
-1.0
  0
CIRCLE
  5
DD5
330
CAA
100
AcDbEntity
  8
0
  6
CONTINU
 62
     7
100
AcDbCircle
 10
-624.9741
 20
-1153.893199999999
 30
0.0
 40
8.000019999999999
210
0.0
220
0.0
230
-1.0
  0
ARC
  5
DD6
330
CAA
100
AcDbEntity
  8
0
  6
CONTINU
 62
     7
100
AcDbCircle
 10
-683.47452
 20
-754.3932999999995
 30
0.0
 40
2.499899999999999
210
0.0
220
0.0
230
-1.0
100
AcDbArc
 50
90.0
 51
180.0029750000011
  0
ARC
  5
DD7
330
CAA
100
AcDbEntity
  8
0
  6
CONTINU
 62
     7
100
AcDbCircle
 10
-663.47452
 20
-1164.393519999999
 30
0.0
 40
2.49984
210
0.0
220
0.0
230
-1.0
100
AcDbArc
 50
270.0
 51
270.7205959999998
  0
ARC
  5
DD8
330
CAA
100
AcDbEntity
  8
0
  6
CONTINU
 62
     7
100
AcDbCircle
 10
-683.4743200000001
 20
-1164.393219999999
 30
0.0
 40
2.500179999999998
210
0.0
220
0.0
230
-1.0
100
AcDbArc
 50
180.0041810000024
 51
270.0
  0
ARC
  5
DD9
330
CAA
100
AcDbEntity
  8
0
  6
CONTINU
 62
     7
100
AcDbCircle
 10
612.6888
 20
-1652.835679999999
 30
0.0
 40
3.0
100
AcDbArc
 50
270.0
 51
350.0008480000052
  0
LINE
  5
DDA
330
CAA
100
AcDbEntity
  8
0
  6
CONTINU
 62
     7
100
AcDbLine
 10
-145.8409399999999
 20
-1653.357999999999
 30
0.0
 11
-214.8675399999999
 21
-1262.974239999999
 31
0.0
  0
ARC
  5
DDB
330
CAA
100
AcDbEntity
  8
0
  6
CONTINU
 62
     7
100
AcDbCircle
 10
142.8867599999999
 20
-1652.835679999999
 30
0.0
 40
3.0
210
0.0
220
0.0
230
-1.0
100
AcDbArc
 50
270.0
 51
349.9727660000001
  0
LINE
  5
DDC
330
CAA
100
AcDbEntity
  8
0
  6
CONTINU
 62
     7
100
AcDbLine
 10
683.4988800000002
 20
-1262.066419999999
 30
0.0
 11
-214.2047399999999
 21
-1262.066419999999
 31
0.0
  0
LINE
  5
DDD
330
CAA
100
AcDbEntity
  8
0
  6
CONTINU
 62
     7
100
AcDbLine
 10
658.4484199999999
 20
-1229.550619999999
 30
0.0
 11
-188.8242599999999
 21
-1229.550619999999
 31
0.0
  0
ENDBLK
  5
DDF
330
CAA
100
AcDbEntity
  8
0
100
AcDbBlockEnd
  0
BLOCK
  5
E70
330
E54
100
AcDbEntity
  8
0
100
AcDbBlockBegin
  2
A$C0A88102C
 70
     0
 10
0.0
 20
0.0
 30
0.0
  3
A$C0A88102C
  1

  0
ARC
  5
E55
330
E54
100
AcDbEntity
  8
0
 62
     7
100
AcDbCircle
 10
-684.7615061856993
 20
79.30405954787523
 30
0.0
 40
58.8818567888008
100
AcDbArc
 50
2.321239149101129
 51
63.00204056460503
  0
ARC
  5
E56
330
E54
100
AcDbEntity
  8
0
 62
     7
100
AcDbCircle
 10
-64.50456709878517
 20
79.30405954787523
 30
0.0
 40
58.88186821000543
100
AcDbArc
 50
116.8833060587507
 51
177.6787515591505
  0
LINE
  5
E57
330
E54
100
AcDbEntity
  8
0
 62
     7
100
AcDbLine
 10
-495.4459193326719
 20
81.68895914504322
 30
0.0
 11
-122.6380366422422
 21
81.68895914504322
 31
0.0
  0
LINE
  5
E58
330
E54
100
AcDbEntity
  8
0
 62
     7
100
AcDbLine
 10
-498.0774407865294
 20
74.70298960158618
 30
0.0
 11
-117.1490061856991
 21
74.70298960158618
 31
0.0
  0
LINE
  5
E59
330
E54
100
AcDbEntity
  8
0
 62
     7
100
AcDbLine
 10
-626.6280366422422
 20
81.68895914504322
 30
0.0
 11
-495.4459193326719
 21
81.68895914504322
 31
0.0
  0
LINE
  5
E5A
330
E54
100
AcDbEntity
  8
0
 62
     7
100
AcDbLine
 10
-632.1170670987852
 20
74.70298960158618
 30
0.0
 11
-498.0774407865294
 21
74.70298960158618
 31
0.0
  0
LINE
  5
E5B
330
E54
100
AcDbEntity
  8
0
 62
     7
100
AcDbLine
 10
-498.0774407865294
 20
66.71895914504341
 30
0.0
 11
-117.1490061856991
 21
66.71895914504341
 31
0.0
  0
LINE
  5
E5C
330
E54
100
AcDbEntity
  8
0
 62
     7
100
AcDbLine
 10
-632.1170670987852
 20
66.71895914504341
 30
0.0
 11
-498.0774407865294
 21
66.71895914504341
 31
0.0
  0
LINE
  5
E5D
330
E54
100
AcDbEntity
  8
0
 62
     7
100
AcDbLine
 10
-505.2454643155821
 20
40.82267435500409
 30
0.0
 11
-102.197736959625
 21
40.82267435500409
 31
0.0
  0
LINE
  5
E5E
330
E54
100
AcDbEntity
  8
0
 62
     7
100
AcDbLine
 10
-647.0683363248594
 20
40.82267435500409
 30
0.0
 11
-505.2454643155821
 21
40.82267435500409
 31
0.0
  0
LINE
  5
E5F
330
E54
100
AcDbEntity
  8
0
 62
     7
100
AcDbLine
 10
-505.5957145597227
 20
40.09202188918391
 30
0.0
 11
-101.4671606351621
 21
40.09202188918391
 31
0.0
  0
LINE
  5
E60
330
E54
100
AcDbEntity
  8
0
 62
     7
100
AcDbLine
 10
-647.7989126493223
 20
40.09202188918391
 30
0.0
 11
-505.5957145597227
 21
40.09202188918391
 31
0.0
  0
LINE
  5
E61
330
E54
100
AcDbEntity
  8
0
 62
     7
100
AcDbLine
 10
-761.6808036855846
 20
19.01548502394928
 30
0.0
 11
5.870514746559933
 21
19.01548502394934
 31
0.0
  0
LINE
  5
E62
330
E54
100
AcDbEntity
  8
0
 62
     7
 48
0.0445112088268585
100
AcDbLine
 10
-626.6280366422422
 20
81.68895914504322
 30
0.0
 11
-632.1170670987852
 21
74.70298960158618
 31
0.0
  0
LINE
  5
E63
330
E54
100
AcDbEntity
  8
0
 62
     7
 48
0.0400001525878906
100
AcDbLine
 10
-632.1170670987852
 20
74.70298960158618
 30
0.0
 11
-632.1170670987852
 21
66.71895914504341
 31
0.0
  0
LINE
  5
E64
330
E54
100
AcDbEntity
  8
0
 62
     7
 48
0.1498119995233962
100
AcDbLine
 10
-117.1490061856991
 20
66.71895914504341
 30
0.0
 11
-102.197736959625
 21
40.82267435500409
 31
0.0
  0
LINE
  5
E65
330
E54
100
AcDbEntity
  8
0
 62
     7
 48
0.1498119995233962
100
AcDbLine
 10
-632.1170670987852
 20
66.71895914504341
 30
0.0
 11
-647.0683363248594
 21
40.82267435500409
 31
0.0
  0
ARC
  5
E66
330
E54
100
AcDbEntity
  8
0
 62
     7
100
AcDbCircle
 10
-648.7968974210509
 20
41.82058298537515
 30
0.0
 40
1.995968175289153
100
AcDbArc
 50
299.9997524435411
 51
330.0002382217921
  0
LINE
  5
E67
330
E54
100
AcDbEntity
  8
0
 62
     7
 48
0.2111909782107274
100
AcDbLine
 10
-101.4671606351621
 20
40.09202188918391
 30
0.0
 11
-64.96095839517193
 21
19.01518045851992
 31
0.0
  0
LINE
  5
E68
330
E54
100
AcDbEntity
  8
0
 62
     7
 48
0.2111909782107274
100
AcDbLine
 10
-647.7989126493223
 20
40.09202188918391
 30
0.0
 11
-684.3051148893125
 21
19.01518045851992
 31
0.0
  0
LINE
  5
E69
330
E54
100
AcDbEntity
  8
0
  6
Continuous
100
AcDbLine
 10
-781.5631229107191
 20
131.7737893560332
 30
0.0
 11
26.09751897863214
 21
131.8174843897277
 31
0.0
  0
LINE
  5
E6A
330
E54
100
AcDbEntity
  8
0
  6
Continuous
100
AcDbLine
 10
-122.6380366422422
 20
81.68895914504322
 30
0.0
 11
-117.1490061856991
 21
74.70298960158618
 31
0.0
  0
LINE
  5
E6B
330
E54
100
AcDbEntity
  8
0
  6
Continuous
100
AcDbLine
 10
-117.1490061856991
 20
74.70298960158618
 30
0.0
 11
-117.1490061856991
 21
66.71895914504341
 31
0.0
  0
LINE
  5
E6C
330
E54
100
AcDbEntity
  8
0
  6
CONTINU
 62
     7
100
AcDbLine
 10
0.0
 20
0.0
 30
0.0
 11
-755.5754799999999
 21
0.0
 31
0.0
  0
ARC
  5
E6D
330
E54
100
AcDbEntity
  8
0
  6
CONTINU
 62
     7
100
AcDbCircle
 10
0.0000400000001264
 20
3.000040000000012
 30
0.0
 40
3.0
100
AcDbArc
 50
270.0
 51
350.0008480000021
  0
ENDBLK
  5
E71
330
E54
100
AcDbEntity
  8
0
100
AcDbBlockEnd
  0
BLOCK
  5
1478
330
1394
100
AcDbEntity
  8
0
100
AcDbBlockBegin
  2
A$C7DF41DE9
 70
     0
 10
0.0
 20
0.0
 30
0.0
  3
A$C7DF41DE9
  1

  0
ARC
  5
1395
330
1394
100
AcDbEntity
  8
0
  6
CONTINU
 62
     7
100
AcDbCircle
 10
-212.5983799999999
 20
-747.5197600000012
 30
0.0
 40
2.500059999999999
100
AcDbArc
 50
179.974471999989
 51
270.0
  0
ARC
  5
1396
330
1394
100
AcDbEntity
  8
0
  6
CONTINU
 62
     7
100
AcDbCircle
 10
-212.5985999999997
 20
-352.5198400000011
 30
0.0
 40
2.499859999999999
100
AcDbArc
 50
90.091415
 51
180.0511319999895
  0
ARC
  5
1397
330
1394
100
AcDbEntity
  8
0
  6
CONTINU
 62
     7
100
AcDbCircle
 10
682.4015000000001
 20
-747.51998
 30
0.0
 40
2.499859999999999
100
AcDbArc
 50
270.0
 51
359.9962079999908
  0
ARC
  5
1398
330
1394
100
AcDbEntity
  8
0
  6
CONTINU
 62
     7
100
AcDbCircle
 10
682.4015000000001
 20
-352.5198400000011
 30
0.0
 40
2.499919999999999
100
AcDbArc
 50
0.013734000007765
 51
90.09710700000008
  0
CIRCLE
  5
1399
330
1394
100
AcDbEntity
  8
0
  6
CONTINU
 62
     7
100
AcDbCircle
 10
-155.0984199999998
 20
-737.01988
 30
0.0
 40
8.0
  0
CIRCLE
  5
139A
330
1394
100
AcDbEntity
  8
0
  6
CONTINU
 62
     7
100
AcDbCircle
 10
624.9014599999999
 20
-737.01988
 30
0.0
 40
8.0
  0
CIRCLE
  5
139B
330
1394
100
AcDbEntity
  8
0
  6
CONTINU
 62
     7
100
AcDbCircle
 10
624.9014599999999
 20
-363.019860000001
 30
0.0
 40
8.0
  0
CIRCLE
  5
139C
330
1394
100
AcDbEntity
  8
0
  6
CONTINU
 62
     7
100
AcDbCircle
 10
-155.0984199999998
 20
-363.019860000001
 30
0.0
 40
8.0
  0
CIRCLE
  5
139D
330
1394
100
AcDbEntity
  8
0
  6
CONTINU
 62
     7
100
AcDbCircle
 10
624.9012200000001
 20
-737.0197199999999
 30
0.0
 40
3.550059999999998
  0
CIRCLE
  5
139E
330
1394
100
AcDbEntity
  8
0
  6
CONTINU
 62
     7
100
AcDbCircle
 10
-155.0985999999998
 20
-737.0195800000012
 30
0.0
 40
3.548199999999998
  0
CIRCLE
  5
139F
330
1394
100
AcDbEntity
  8
0
  6
CONTINU
 62
     7
100
AcDbCircle
 10
-155.0985999999998
 20
-363.019860000001
 30
0.0
 40
3.499979999999998
  0
CIRCLE
  5
13A0
330
1394
100
AcDbEntity
  8
0
  6
CONTINU
 62
     7
100
AcDbCircle
 10
624.9012200000001
 20
-363.019860000001
 30
0.0
 40
3.499979999999998
  0
LINE
  5
13A1
330
1394
100
AcDbEntity
  8
0
  6
CONTINU
 62
     7
100
AcDbLine
 10
684.9014399999999
 20
-747.519840000001
 30
0.0
 11
684.9014399999999
 21
-352.5198400000011
 31
0.0
  0
LINE
  5
13A2
330
1394
100
AcDbEntity
  8
0
  6
CONTINU
 62
     7
100
AcDbLine
 10
-215.0985199999998
 20
-747.519840000001
 30
0.0
 11
-215.0985199999998
 21
-352.5198400000011
 31
0.0
  0
LINE
  5
13A3
330
1394
100
AcDbEntity
  8
0
  6
CONTINU
 62
     7
100
AcDbLine
 10
-212.5985999999997
 20
-350.0198400000011
 30
0.0
 11
-192.8485399999998
 21
-350.0198400000011
 31
0.0
  0
LINE
  5
13A4
330
1394
100
AcDbEntity
  8
0
  6
CONTINU
 62
     7
100
AcDbLine
 10
662.6514400000001
 20
-350.0198400000011
 30
0.0
 11
682.4015000000001
 21
-350.0198400000011
 31
0.0
  0
LINE
  5
13A5
330
1394
100
AcDbEntity
  8
0
  6
CONTINU
 62
     7
100
AcDbLine
 10
-212.5985199999998
 20
-750.0197600000013
 30
0.0
 11
-191.7521199999999
 21
-750.0197600000013
 31
0.0
  0
LINE
  5
13A6
330
1394
100
AcDbEntity
  8
0
  6
CONTINU
 62
     7
100
AcDbLine
 10
662.4015
 20
-750.0197600000013
 30
0.0
 11
682.4015000000001
 21
-750.0197600000013
 31
0.0
  0
LINE
  5
13A7
330
1394
100
AcDbEntity
  8
0
  6
CONTINU
 62
     7
100
AcDbLine
 10
-191.7521199999999
 20
-750.0197600000013
 30
0.0
 11
662.40138
 21
-750.0197600000013
 31
0.0
  0
ARC
  5
13A8
330
1394
100
AcDbEntity
  8
0
  6
CONTINU
 62
     7
100
AcDbCircle
 10
682.2501599999998
 20
-347.2500599999999
 30
0.0
 40
2.749919999999999
100
AcDbArc
 50
270.0517199999995
 51
359.992096000008
  0
ARC
  5
13A9
330
1394
100
AcDbEntity
  8
0
  6
CONTINU
 62
     7
100
AcDbCircle
 10
682.2500999999999
 20
-254.4014000000011
 30
0.0
 40
2.74994
100
AcDbArc
 50
0.0128530000048088
 51
90.08229100000024
  0
ARC
  5
13AA
330
1394
100
AcDbEntity
  8
0
  6
CONTINU
 62
     7
100
AcDbCircle
 10
-212.2500999999998
 20
-347.2500599999999
 30
0.0
 40
2.74994
100
AcDbArc
 50
179.9710079999981
 51
270.0554280000001
  0
ARC
  5
13AB
330
1394
100
AcDbEntity
  8
0
  6
CONTINU
 62
     7
100
AcDbCircle
 10
-212.2500199999999
 20
-254.4014000000011
 30
0.0
 40
2.749919999999999
100
AcDbArc
 50
90.0823819999996
 51
180.0397339999978
  0
CIRCLE
  5
13AC
330
1394
100
AcDbEntity
  8
0
  6
CONTINU
 62
     7
100
AcDbCircle
 10
624.9996799999999
 20
-334.9997000000001
 30
0.0
 40
3.549979999999998
  0
CIRCLE
  5
13AD
330
1394
100
AcDbEntity
  8
0
  6
CONTINU
 62
     7
100
AcDbCircle
 10
-155.0004199999998
 20
-334.9969400000009
 30
0.0
 40
3.552599999999998
  0
LINE
  5
13AE
330
1394
100
AcDbEntity
  8
0
  6
CONTINU
 62
     7
100
AcDbLine
 10
-211.7199999999999
 20
-249.525000000001
 30
0.0
 11
-0.0000399999998848
 21
0.0
 31
0.0
  0
LINE
  5
13AF
330
1394
100
AcDbEntity
  8
0
  6
CONTINU
 62
     7
100
AcDbLine
 10
679.6231199999998
 20
-251.3041599999999
 30
0.0
 11
681.7200199999998
 21
-249.525000000001
 31
0.0
  0
LINE
  5
13B0
330
1394
100
AcDbEntity
  8
0
  6
CONTINU
 62
     7
100
AcDbLine
 10
-211.7199999999999
 20
-249.525000000001
 30
0.0
 11
-209.6232999999998
 21
-251.3041599999999
 31
0.0
  0
LINE
  5
13B1
330
1394
100
AcDbEntity
  8
0
  6
CONTINU
 62
     7
100
AcDbLine
 10
472.32376
 20
-2.73849999999993
 30
0.0
 11
681.72004
 21
-249.525000000001
 31
0.0
  0
LINE
  5
13B2
330
1394
100
AcDbEntity
  8
0
  6
CONTINU
 62
     7
100
AcDbLine
 10
685.0000600000001
 20
-347.2499000000009
 30
0.0
 11
685.0000600000001
 21
-254.4014000000011
 31
0.0
  0
LINE
  5
13B3
330
1394
100
AcDbEntity
  8
0
  6
CONTINU
 62
     7
100
AcDbLine
 10
-215.0000399999997
 20
-347.2499000000009
 30
0.0
 11
-215.0000399999997
 21
-254.4014000000011
 31
0.0
  0
LINE
  5
13B4
330
1394
100
AcDbEntity
  8
0
  6
CONTINU
 62
     7
100
AcDbLine
 10
0.0
 20
0.0
 30
0.0
 11
470.0001399999999
 21
0.0
 31
0.0
  0
SPLINE
  5
13B5
330
1394
100
AcDbEntity
  8
0
  6
CONTINU
 62
     7
100
AcDbSpline
210
0.0
220
0.0
230
1.0
 70
     8
 71
     5
 72
    12
 73
     6
 74
     0
 42
0.0000000001
 43
0.0000000001
 40
0.0
 40
0.0
 40
0.0
 40
0.0
 40
0.0
 40
0.0
 40
1.0
 40
1.0
 40
1.0
 40
1.0
 40
1.0
 40
1.0
 10
685.0000354418677
 20
-327.1798512338271
 30
0.0
 10
685.0000354418677
 20
-327.10587662335
 30
0.0
 10
685.0000354418677
 20
-327.0510823110103
 30
0.0
 10
685.0000659594463
 20
-327.0149952743391
 30
0.0
 10
685.0000659594463
 20
-326.9971958966321
 30
0.0
 10
685.0000659594463
 20
-326.997188267238
 30
0.0
  0
LINE
  5
13B6
330
1394
100
AcDbEntity
  8
0
  6
CONTINU
 62
     7
100
AcDbLine
 10
470.00012
 20
0.0
 30
0.0
 11
472.32388
 21
-2.738640000000032
 31
0.0
  0
LINE
  5
13B7
330
1394
100
AcDbEntity
  8
0
  6
CONTINU
 62
     7
100
AcDbLine
 10
468.72704
 20
0.0
 30
0.0
 11
470.00012
 21
0.0
 31
0.0
  0
LINE
  5
13B8
330
1394
100
AcDbEntity
  8
0
  6
CONTINU
 62
     7
100
AcDbLine
 10
-212.2498599999998
 20
-350.0000000000002
 30
0.0
 11
682.2501799999998
 21
-350.0000000000002
 31
0.0
  0
CIRCLE
  5
13B9
330
1394
100
AcDbEntity
  8
0
  6
CONTINU
 62
     7
100
AcDbCircle
 10
624.9996799999999
 20
-334.9997000000001
 30
0.0
 40
8.0
  0
LINE
  5
13BA
330
1394
100
AcDbEntity
  8
0
  6
CONTINU
 62
     7
100
AcDbLine
 10
682.2500999999999
 20
-251.651460000001
 30
0.0
 11
679.6231199999998
 21
-251.3041599999999
 31
0.0
  0
CIRCLE
  5
13BB
330
1394
100
AcDbEntity
  8
0
  6
CONTINU
 62
     7
100
AcDbCircle
 10
-155.0004199999998
 20
-334.9969400000009
 30
0.0
 40
8.0
  0
LINE
  5
13BC
330
1394
100
AcDbEntity
  8
0
  6
CONTINU
 62
     7
100
AcDbLine
 10
-212.2500199999999
 20
-251.651460000001
 30
0.0
 11
-209.6232999999998
 21
-251.3041599999999
 31
0.0
  0
LINE
  5
13BD
330
1394
100
AcDbEntity
  8
0
  6
CONTINU
 62
     7
100
AcDbLine
 10
-215.0654999999999
 20
-943.9505800000011
 30
0.0
 11
-235.0654999999999
 21
-943.9505800000011
 31
0.0
  0
LINE
  5
13BE
330
1394
100
AcDbEntity
  8
0
  6
CONTINU
 62
     7
100
AcDbLine
 10
-235.0654999999999
 20
-943.9506600000012
 30
0.0
 11
-235.0654999999999
 21
-809.9506400000011
 31
0.0
  0
LINE
  5
13BF
330
1394
100
AcDbEntity
  8
0
  6
CONTINU
 62
     7
100
AcDbLine
 10
-215.0654999999999
 20
-809.95056
 30
0.0
 11
-235.0654999999999
 21
-809.95056
 31
0.0
  0
LINE
  5
13C0
330
1394
100
AcDbEntity
  8
0
  6
CONTINU
 62
     7
100
AcDbLine
 10
683.5125200000002
 20
-1732.9532
 30
0.0
 11
-213.4064799999999
 21
-1732.9532
 31
0.0
  0
ARC
  5
13C1
330
1394
100
AcDbEntity
  8
0
  6
CONTINU
 62
     7
100
AcDbCircle
 10
190.5649199999998
 20
-1700.01742
 30
0.0
 40
1.499179999999999
210
0.0
220
0.0
230
-1.0
100
AcDbArc
 50
180.0968169999977
 51
218.6986540000025
  0
ARC
  5
13C2
330
1394
100
AcDbEntity
  8
0
  6
CONTINU
 62
     7
100
AcDbCircle
 10
-660.43484
 20
-1700.01702
 30
0.0
 40
1.50022
210
0.0
220
0.0
230
-1.0
100
AcDbArc
 50
321.3141670000034
 51
0.0784489999992565
  0
LINE
  5
13C3
330
1394
100
AcDbEntity
  8
0
  6
CONTINU
 62
     7
100
AcDbLine
 10
-145.9015999999998
 20
-2124.3497
 30
0.0
 11
-214.7424599999998
 21
-1733.96724
 31
0.0
  0
LINE
  5
13C4
330
1394
100
AcDbEntity
  8
0
  6
CONTINU
 62
     7
100
AcDbLine
 10
684.0982599999998
 20
-1731.96722
 30
0.0
 11
659.2624999999999
 21
-1700.95308
 31
0.0
  0
LINE
  5
13C5
330
1394
100
AcDbEntity
  8
0
  6
CONTINU
 62
     7
100
AcDbLine
 10
-189.3960199999998
 20
-1700.9564
 30
0.0
 11
-214.2321399999998
 21
-1731.97026
 31
0.0
  0
LINE
  5
13C6
330
1394
100
AcDbEntity
  8
0
  6
CONTINU
 62
     7
100
AcDbLine
 10
684.6089600000001
 20
-1733.96394
 30
0.0
 11
615.7676999999999
 21
-2124.3497
 31
0.0
  0
LINE
  5
13C7
330
1394
100
AcDbEntity
  8
0
  6
CONTINU
 62
     7
100
AcDbLine
 10
-189.0655799999997
 20
-1700.01712
 30
0.0
 11
-189.0655799999997
 21
-1637.95068
 31
0.0
  0
LINE
  5
13C8
330
1394
100
AcDbEntity
  8
0
  6
CONTINU
 62
     7
100
AcDbLine
 10
658.9346399999998
 20
-1700.01726
 30
0.0
 11
658.9346399999998
 21
-1637.9508
 31
0.0
  0
LINE
  5
13C9
330
1394
100
AcDbEntity
  8
0
  6
CONTINU
 62
     7
100
AcDbLine
 10
658.8767199999999
 20
-1700.80654
 30
0.0
 11
-188.7764999999999
 21
-1700.80654
 31
0.0
  0
LINE
  5
13CA
330
1394
100
AcDbEntity
  8
0
  6
CONTINU
 62
     7
100
AcDbLine
 10
612.8132400000001
 20
-2126.82872
 30
0.0
 11
-142.9471999999998
 21
-2126.82872
 31
0.0
  0
POLYLINE
  5
13CB
330
1394
100
AcDbEntity
  8
0
  6
CONTINU
 62
     7
100
AcDb2dPolyline
 66
     1
 10
0.0
 20
0.0
 30
0.0
  0
VERTEX
  5
13CC
330
13CB
100
AcDbEntity
  8
0
100
AcDbVertex
100
AcDb2dVertex
 10
684.0983600000002
 20
-1731.96712
 30
0.0
  0
VERTEX
  5
13CD
330
13CB
100
AcDbEntity
  8
0
100
AcDbVertex
100
AcDb2dVertex
 10
684.29948
 20
-1732.25824
 30
0.0
  0
VERTEX
  5
13CE
330
13CB
100
AcDbEntity
  8
0
100
AcDbVertex
100
AcDb2dVertex
 10
684.4573000000001
 20
-1732.57484
 30
0.0
  0
VERTEX
  5
13CF
330
13CB
100
AcDbEntity
  8
0
100
AcDbVertex
100
AcDb2dVertex
 10
684.5690400000001
 20
-1732.91048
 30
0.0
  0
VERTEX
  5
13D0
330
13CB
100
AcDbEntity
  8
0
100
AcDbVertex
100
AcDb2dVertex
 10
684.6321199999998
 20
-1733.2586
 30
0.0
  0
VERTEX
  5
13D1
330
13CB
100
AcDbEntity
  8
0
100
AcDbVertex
100
AcDb2dVertex
 10
684.64558
 20
-1733.61216
 30
0.0
  0
VERTEX
  5
13D2
330
13CB
100
AcDbEntity
  8
0
100
AcDbVertex
100
AcDb2dVertex
 10
684.60892
 20
-1733.96394
 30
0.0
  0
SEQEND
  5
13D3
330
13CB
100
AcDbEntity
  8
0
  0
SPLINE
  5
13D4
330
1394
100
AcDbEntity
  8
0
  6
CONTINU
 62
     7
100
AcDbSpline
210
0.0
220
0.0
230
1.0
 70
     8
 71
     5
 72
    12
 73
     6
 74
     0
 42
0.0000000001
 43
0.0000000001
 40
0.0
 40
0.0
 40
0.0
 40
0.0
 40
0.0
 40
0.0
 40
1.0
 40
1.0
 40
1.0
 40
1.0
 40
1.0
 40
1.0
 10
-187.7053001454799
 20
-1700.542592751921
 30
0.0
 10
-187.7040489247581
 20
-1700.542287576135
 30
0.0
 10
-187.7027977040363
 20
-1700.541982400349
 30
0.0
 10
-187.7015464833145
 20
-1700.541677224563
 30
0.0
 10
-187.7002342274356
 20
-1700.541402566356
 30
0.0
 10
-187.6989830067138
 20
-1700.54109739057
 30
0.0
  0
POLYLINE
  5
13D5
330
1394
100
AcDbEntity
  8
0
  6
CONTINU
 62
     7
100
AcDb2dPolyline
 66
     1
 10
0.0
 20
0.0
 30
0.0
  0
VERTEX
  5
13D6
330
13D5
100
AcDbEntity
  8
0
100
AcDbVertex
100
AcDb2dVertex
 10
-214.7426199999998
 20
-1733.96728
 30
0.0
  0
VERTEX
  5
13D7
330
13D5
100
AcDbEntity
  8
0
100
AcDbVertex
100
AcDb2dVertex
 10
-214.7792399999998
 20
-1733.61546
 30
0.0
  0
VERTEX
  5
13D8
330
13D5
100
AcDbEntity
  8
0
100
AcDbVertex
100
AcDb2dVertex
 10
-214.7657399999998
 20
-1733.26188
 30
0.0
  0
VERTEX
  5
13D9
330
13D5
100
AcDbEntity
  8
0
100
AcDbVertex
100
AcDb2dVertex
 10
-214.7026399999998
 20
-1732.91382
 30
0.0
  0
VERTEX
  5
13DA
330
13D5
100
AcDbEntity
  8
0
100
AcDbVertex
100
AcDb2dVertex
 10
-214.5909399999998
 20
-1732.57818
 30
0.0
  0
VERTEX
  5
13DB
330
13D5
100
AcDbEntity
  8
0
100
AcDbVertex
100
AcDb2dVertex
 10
-214.4330999999998
 20
-1732.2616
 30
0.0
  0
VERTEX
  5
13DC
330
13D5
100
AcDbEntity
  8
0
100
AcDbVertex
100
AcDb2dVertex
 10
-214.2320599999998
 20
-1731.97046
 30
0.0
  0
SEQEND
  5
13DD
330
13D5
100
AcDbEntity
  8
0
  0
ARC
  5
13DE
330
1394
100
AcDbEntity
  8
0
  6
CONTINU
 62
     7
100
AcDbCircle
 10
212.3154799999997
 20
-1635.20062
 30
0.0
 40
2.74988
210
0.0
220
0.0
230
-1.0
100
AcDbArc
 50
270.0
 51
0.0026920000009479
  0
ARC
  5
13DF
330
1394
100
AcDbEntity
  8
0
  6
CONTINU
 62
     7
100
AcDbCircle
 10
212.3154799999997
 20
-754.700400000001
 30
0.0
 40
2.749959999999999
210
0.0
220
0.0
230
-1.0
100
AcDbArc
 50
359.9973870000123
 51
90.0
  0
CIRCLE
  5
13E0
330
1394
100
AcDbEntity
  8
0
  6
CONTINU
 62
     7
100
AcDbCircle
 10
-624.9345199999999
 20
-1624.95048
 30
0.0
 40
8.000019999999999
210
0.0
220
0.0
230
-1.0
  0
CIRCLE
  5
13E1
330
1394
100
AcDbEntity
  8
0
  6
CONTINU
 62
     7
100
AcDbCircle
 10
155.0655599999997
 20
-1624.95048
 30
0.0
 40
8.000019999999999
210
0.0
220
0.0
230
-1.0
  0
CIRCLE
  5
13E2
330
1394
100
AcDbEntity
  8
0
  6
CONTINU
 62
     7
100
AcDbCircle
 10
155.0655599999997
 20
-764.95056
 30
0.0
 40
8.000019999999999
210
0.0
220
0.0
230
-1.0
  0
CIRCLE
  5
13E3
330
1394
100
AcDbEntity
  8
0
  6
CONTINU
 62
     7
100
AcDbCircle
 10
-624.9345199999999
 20
-764.95056
 30
0.0
 40
8.000019999999999
210
0.0
220
0.0
230
-1.0
  0
ARC
  5
13E4
330
1394
100
AcDbEntity
  8
0
  6
CONTINU
 62
     7
100
AcDbCircle
 10
-549.2223
 20
-796.98082
 30
0.0
 40
7.373739999999998
210
0.0
220
0.0
230
-1.0
100
AcDbArc
 50
314.9980010000068
 51
345.0043529999976
  0
ARC
  5
13E5
330
1394
100
AcDbEntity
  8
0
  6
CONTINU
 62
     7
100
AcDbCircle
 10
-547.87466
 20
-791.9505200000001
 30
0.0
 40
7.374019999999998
210
0.0
220
0.0
230
-1.0
100
AcDbArc
 50
344.9978060000059
 51
15.00216899999678
  0
ARC
  5
13E6
330
1394
100
AcDbEntity
  8
0
  6
CONTINU
 62
     7
100
AcDbCircle
 10
-549.22132
 20
-786.9202400000001
 30
0.0
 40
7.37288
210
0.0
220
0.0
230
-1.0
100
AcDbArc
 50
14.99764700000642
 51
45.00741199999287
  0
ARC
  5
13E7
330
1394
100
AcDbEntity
  8
0
  6
CONTINU
 62
     7
100
AcDbCircle
 10
-552.9070399999999
 20
-783.2428000000001
 30
0.0
 40
7.378779999999999
210
0.0
220
0.0
230
-1.0
100
AcDbArc
 50
45.01011300000413
 51
74.99349999999783
  0
ARC
  5
13E8
330
1394
100
AcDbEntity
  8
0
  6
CONTINU
 62
     7
100
AcDbCircle
 10
-557.93482
 20
-781.8951400000011
 30
0.0
 40
7.37858
210
0.0
220
0.0
230
-1.0
100
AcDbArc
 50
75.00669899999909
 51
104.9931720000029
  0
ARC
  5
13E9
330
1394
100
AcDbEntity
  8
0
  6
CONTINU
 62
     7
100
AcDbCircle
 10
-562.96266
 20
-783.2415800000001
 30
0.0
 40
7.377619999999999
210
0.0
220
0.0
230
-1.0
100
AcDbArc
 50
105.0075680000015
 51
134.9977109999993
  0
ARC
  5
13EA
330
1394
100
AcDbEntity
  8
0
  6
CONTINU
 62
     7
100
AcDbCircle
 10
-566.64662
 20
-786.9202400000001
 30
0.0
 40
7.37388
210
0.0
220
0.0
230
-1.0
100
AcDbArc
 50
135.0031130000087
 51
165.0058439999992
  0
ARC
  5
13EB
330
1394
100
AcDbEntity
  8
0
  6
CONTINU
 62
     7
100
AcDbCircle
 10
-567.9939599999999
 20
-791.950760000001
 30
0.0
 40
7.374699999999998
210
0.0
220
0.0
230
-1.0
100
AcDbArc
 50
164.9981379999912
 51
195.0007319999962
  0
ARC
  5
13EC
330
1394
100
AcDbEntity
  8
0
  6
CONTINU
 62
     7
100
AcDbCircle
 10
-566.64722
 20
-796.9805799999999
 30
0.0
 40
7.373599999999998
210
0.0
220
0.0
230
-1.0
100
AcDbArc
 50
195.0002140000079
 51
225.0054170000043
  0
ARC
  5
13ED
330
1394
100
AcDbEntity
  8
0
  6
CONTINU
 62
     7
100
AcDbCircle
 10
-562.96412
 20
-800.66292
 30
0.0
 40
7.3742
210
0.0
220
0.0
230
-1.0
100
AcDbArc
 50
224.9950559999915
 51
254.9987640000005
  0
ARC
  5
13EE
330
1394
100
AcDbEntity
  8
0
  6
CONTINU
 62
     7
100
AcDbCircle
 10
-557.9345799999999
 20
-802.01088
 30
0.0
 40
7.373619999999998
210
0.0
220
0.0
230
-1.0
100
AcDbArc
 50
254.9973450000017
 51
285.0016399999976
  0
ARC
  5
13EF
330
1394
100
AcDbEntity
  8
0
  6
CONTINU
 62
     7
100
AcDbCircle
 10
-552.9058800000001
 20
-800.6600200000001
 30
0.0
 40
7.376899999999999
210
0.0
220
0.0
230
-1.0
100
AcDbArc
 50
285.0020900000002
 51
314.9941900000048
  0
ARC
  5
13F0
330
1394
100
AcDbEntity
  8
0
  6
CONTINU
 62
     7
100
AcDbCircle
 10
93.09413999999984
 20
-800.6597799999999
 30
0.0
 40
7.37718
210
0.0
220
0.0
230
-1.0
100
AcDbArc
 50
285.0025630000025
 51
314.9930729999905
  0
ARC
  5
13F1
330
1394
100
AcDbEntity
  8
0
  6
CONTINU
 62
     7
100
AcDbCircle
 10
96.77783999999984
 20
-796.98082
 30
0.0
 40
7.37368
210
0.0
220
0.0
230
-1.0
100
AcDbArc
 50
314.9988440000023
 51
345.0048240000048
  0
ARC
  5
13F2
330
1394
100
AcDbEntity
  8
0
  6
CONTINU
 62
     7
100
AcDbCircle
 10
98.12159999999988
 20
-791.9505200000001
 30
0.0
 40
7.377779999999998
210
0.0
220
0.0
230
-1.0
100
AcDbArc
 50
345.005595000002
 51
14.99433400000571
  0
ARC
  5
13F3
330
1394
100
AcDbEntity
  8
0
  6
CONTINU
 62
     7
100
AcDbCircle
 10
96.77549999999985
 20
-786.9222200000002
 30
0.0
 40
7.376539999999999
210
0.0
220
0.0
230
-1.0
100
AcDbArc
 50
15.00594700001039
 51
44.99903500000672
  0
ARC
  5
13F4
330
1394
100
AcDbEntity
  8
0
  6
CONTINU
 62
     7
100
AcDbCircle
 10
93.09585999999985
 20
-783.2386000000001
 30
0.0
 40
7.37388
210
0.0
220
0.0
230
-1.0
100
AcDbArc
 50
45.00160599999255
 51
75.00503499999794
  0
ARC
  5
13F5
330
1394
100
AcDbEntity
  8
0
  6
CONTINU
 62
     7
100
AcDbCircle
 10
88.06537999999983
 20
-781.8951400000011
 30
0.0
 40
7.37856
210
0.0
220
0.0
230
-1.0
100
AcDbArc
 50
75.00715600000042
 51
104.9936289999978
  0
ARC
  5
13F6
330
1394
100
AcDbEntity
  8
0
  6
CONTINU
 62
     7
100
AcDbCircle
 10
83.03747999999986
 20
-783.2420400000012
 30
0.0
 40
7.378099999999999
210
0.0
220
0.0
230
-1.0
100
AcDbArc
 50
105.0065000000022
 51
134.9944459999936
  0
ARC
  5
13F7
330
1394
100
AcDbEntity
  8
0
  6
CONTINU
 62
     7
100
AcDbCircle
 10
79.35625999999986
 20
-786.9224599999999
 30
0.0
 40
7.377359999999998
210
0.0
220
0.0
230
-1.0
100
AcDbArc
 50
135.0055079999916
 51
164.9950870000036
  0
ARC
  5
13F8
330
1394
100
AcDbEntity
  8
0
  6
CONTINU
 62
     7
100
AcDbCircle
 10
78.00623999999986
 20
-791.950760000001
 30
0.0
 40
7.37476
210
0.0
220
0.0
230
-1.0
100
AcDbArc
 50
164.9981990000061
 51
195.000548999997
  0
ARC
  5
13F9
330
1394
100
AcDbEntity
  8
0
  6
CONTINU
 62
     7
100
AcDbCircle
 10
79.35621999999982
 20
-796.97936
 30
0.0
 40
7.37708
210
0.0
220
0.0
230
-1.0
100
AcDbArc
 50
195.0027469999976
 51
224.9928279999951
  0
ARC
  5
13FA
330
1394
100
AcDbEntity
  8
0
  6
CONTINU
 62
     7
100
AcDbCircle
 10
83.03729999999983
 20
-800.6604800000012
 30
0.0
 40
7.376819999999998
210
0.0
220
0.0
230
-1.0
100
AcDbArc
 50
225.0012660000055
 51
254.9947660000015
  0
ARC
  5
13FB
330
1394
100
AcDbEntity
  8
0
  6
CONTINU
 62
     7
100
AcDbCircle
 10
88.06555999999982
 20
-802.0117200000012
 30
0.0
 40
7.372899999999998
210
0.0
220
0.0
230
-1.0
100
AcDbArc
 50
254.9958269999969
 51
285.0035550000028
  0
CIRCLE
  5
13FC
330
1394
100
AcDbEntity
  8
0
  6
CONTINU
 62
     7
100
AcDbCircle
 10
155.0655599999997
 20
-764.95056
 30
0.0
 40
3.500019999999998
210
0.0
220
0.0
230
-1.0
  0
CIRCLE
  5
13FD
330
1394
100
AcDbEntity
  8
0
  6
CONTINU
 62
     7
100
AcDbCircle
 10
-624.9345199999999
 20
-764.95056
 30
0.0
 40
3.500019999999998
210
0.0
220
0.0
230
-1.0
  0
CIRCLE
  5
13FE
330
1394
100
AcDbEntity
  8
0
  6
CONTINU
 62
     7
100
AcDbCircle
 10
-624.9345199999999
 20
-1624.95048
 30
0.0
 40
3.500019999999998
210
0.0
220
0.0
230
-1.0
  0
CIRCLE
  5
13FF
330
1394
100
AcDbEntity
  8
0
  6
CONTINU
 62
     7
100
AcDbCircle
 10
155.0655599999997
 20
-1624.95048
 30
0.0
 40
3.500019999999998
210
0.0
220
0.0
230
-1.0
  0
LINE
  5
1400
330
1394
100
AcDbEntity
  8
0
  6
CONTINU
 62
     7
100
AcDbLine
 10
575.34062
 20
-791.3080600000012
 30
0.0
 11
575.1173199999998
 21
-790.042340000001
 31
0.0
  0
LINE
  5
1401
330
1394
100
AcDbEntity
  8
0
  6
CONTINU
 62
     7
100
AcDbLine
 10
-70.65973999999986
 20
-791.3080600000012
 30
0.0
 11
-70.88293999999978
 21
-790.04196
 31
0.0
  0
LINE
  5
1402
330
1394
100
AcDbEntity
  8
0
  6
CONTINU
 62
     7
100
AcDbLine
 10
540.7520199999999
 20
-793.8578000000002
 30
0.0
 11
540.5287799999999
 21
-792.5933800000011
 31
0.0
  0
LINE
  5
1403
330
1394
100
AcDbEntity
  8
0
  6
CONTINU
 62
     7
100
AcDbLine
 10
-105.2481799999997
 20
-793.8586400000001
 30
0.0
 11
-105.4713399999998
 21
-792.5931600000012
 31
0.0
  0
LINE
  5
1404
330
1394
100
AcDbEntity
  8
0
  6
CONTINU
 62
     7
100
AcDbLine
 10
542.09974
 20
-798.8891600000011
 30
0.0
 11
540.7518600000002
 21
-793.8602400000002
 31
0.0
  0
LINE
  5
1405
330
1394
100
AcDbEntity
  8
0
  6
CONTINU
 62
     7
100
AcDbLine
 10
575.1174999999998
 20
-790.0415800000001
 30
0.0
 11
573.7696199999999
 21
-785.0112200000012
 31
0.0
  0
LINE
  5
1406
330
1394
100
AcDbEntity
  8
0
  6
CONTINU
 62
     7
100
AcDbLine
 10
-103.9001399999998
 20
-798.8897600000012
 30
0.0
 11
-105.2477999999998
 21
-793.8596400000013
 31
0.0
  0
LINE
  5
1407
330
1394
100
AcDbEntity
  8
0
  6
CONTINU
 62
     7
100
AcDbLine
 10
-70.88289999999989
 20
-790.0421800000001
 30
0.0
 11
-72.23039999999985
 21
-785.0125800000012
 31
0.0
  0
LINE
  5
1408
330
1394
100
AcDbEntity
  8
0
  6
CONTINU
 62
     7
100
AcDbLine
 10
542.5394399999999
 20
-800.0964400000002
 30
0.0
 11
542.09986
 21
-798.8884000000012
 31
0.0
  0
LINE
  5
1409
330
1394
100
AcDbEntity
  8
0
  6
CONTINU
 62
     7
100
AcDbLine
 10
-103.4607199999998
 20
-800.0964400000002
 30
0.0
 11
-103.9003399999998
 21
-798.8886200000002
 31
0.0
  0
LINE
  5
140A
330
1394
100
AcDbEntity
  8
0
  6
CONTINU
 62
     7
100
AcDbLine
 10
573.76968
 20
-785.0125800000012
 30
0.0
 11
573.3299
 21
-783.8045400000012
 31
0.0
  0
LINE
  5
140B
330
1394
100
AcDbEntity
  8
0
  6
CONTINU
 62
     7
100
AcDbLine
 10
-72.23043999999982
 20
-785.0125800000012
 30
0.0
 11
-72.67011999999988
 21
-783.8045400000012
 31
0.0
  0
LINE
  5
140C
330
1394
100
AcDbEntity
  8
0
  6
CONTINU
 62
     7
100
AcDbLine
 10
573.3299
 20
-783.8047799999999
 30
0.0
 11
572.6873199999999
 21
-782.691040000001
 31
0.0
  0
LINE
  5
140D
330
1394
100
AcDbEntity
  8
0
  6
CONTINU
 62
     7
100
AcDbLine
 10
-72.67023999999986
 20
-783.8049200000011
 30
0.0
 11
-73.3129399999998
 21
-782.6915000000001
 31
0.0
  0
LINE
  5
140E
330
1394
100
AcDbEntity
  8
0
  6
CONTINU
 62
     7
100
AcDbLine
 10
543.18214
 20
-801.2099400000002
 30
0.0
 11
542.5393599999999
 21
-800.0968200000011
 31
0.0
  0
LINE
  5
140F
330
1394
100
AcDbEntity
  8
0
  6
CONTINU
 62
     7
100
AcDbLine
 10
-102.8180599999997
 20
-801.2099400000002
 30
0.0
 11
-103.4607599999998
 21
-800.0968200000011
 31
0.0
  0
LINE
  5
1410
330
1394
100
AcDbEntity
  8
0
  6
CONTINU
 62
     7
100
AcDbLine
 10
572.68736
 20
-782.6914200000012
 30
0.0
 11
571.8606399999999
 21
-781.7065400000013
 31
0.0
  0
LINE
  5
1411
330
1394
100
AcDbEntity
  8
0
  6
CONTINU
 62
     7
100
AcDbLine
 10
-73.31297999999984
 20
-782.6914200000012
 30
0.0
 11
-74.13951999999989
 21
-781.70638
 31
0.0
  0
LINE
  5
1412
330
1394
100
AcDbEntity
  8
0
  6
CONTINU
 62
     7
100
AcDbLine
 10
544.0084000000001
 20
-802.1949000000002
 30
0.0
 11
543.1820600000001
 21
-801.2099400000002
 31
0.0
  0
LINE
  5
1413
330
1394
100
AcDbEntity
  8
0
  6
CONTINU
 62
     7
100
AcDbLine
 10
-101.9915799999998
 20
-802.1949000000002
 30
0.0
 11
-102.8180199999998
 21
-801.2101000000003
 31
0.0
  0
LINE
  5
1414
330
1394
100
AcDbEntity
  8
0
  6
CONTINU
 62
     7
100
AcDbLine
 10
547.69034
 20
-805.8768400000001
 30
0.0
 11
544.00864
 21
-802.1940600000011
 31
0.0
  0
LINE
  5
1415
330
1394
100
AcDbEntity
  8
0
  6
CONTINU
 62
     7
100
AcDbLine
 10
571.8608999999999
 20
-781.7053200000011
 30
0.0
 11
568.1791400000001
 21
-778.0245200000011
 31
0.0
  0
LINE
  5
1416
330
1394
100
AcDbEntity
  8
0
  6
CONTINU
 62
     7
100
AcDbLine
 10
-98.30957999999984
 20
-805.8779200000001
 30
0.0
 11
-101.9920199999999
 21
-802.1945999999999
 31
0.0
  0
LINE
  5
1417
330
1394
100
AcDbEntity
  8
0
  6
CONTINU
 62
     7
100
AcDbLine
 10
-74.13923999999983
 20
-781.7069200000012
 30
0.0
 11
-77.82087999999989
 21
-778.0241400000011
 31
0.0
  0
LINE
  5
1418
330
1394
100
AcDbEntity
  8
0
  6
CONTINU
 62
     7
100
AcDbLine
 10
548.67502
 20
-806.7031000000001
 30
0.0
 11
547.69022
 21
-805.8765400000011
 31
0.0
  0
LINE
  5
1419
330
1394
100
AcDbEntity
  8
0
  6
CONTINU
 62
     7
100
AcDbLine
 10
-97.32505999999981
 20
-806.7031000000001
 30
0.0
 11
-98.30989999999989
 21
-805.8765400000011
 31
0.0
  0
LINE
  5
141A
330
1394
100
AcDbEntity
  8
0
  6
CONTINU
 62
     7
100
AcDbLine
 10
568.1791
 20
-778.02468
 30
0.0
 11
567.1944
 21
-777.19848
 31
0.0
  0
LINE
  5
141B
330
1394
100
AcDbEntity
  8
0
  6
CONTINU
 62
     7
100
AcDbLine
 10
-77.82103999999977
 20
-778.0247400000011
 30
0.0
 11
-78.80575999999985
 21
-777.1982600000012
 31
0.0
  0
LINE
  5
141C
330
1394
100
AcDbEntity
  8
0
  6
CONTINU
 62
     7
100
AcDbLine
 10
557.9343
 20
-799.5140000000012
 30
0.0
 11
551.3844600000002
 21
-795.7322000000011
 31
0.0
  0
LINE
  5
141D
330
1394
100
AcDbEntity
  8
0
  6
CONTINU
 62
     7
100
AcDbLine
 10
-88.06547999999988
 20
-799.5142400000002
 30
0.0
 11
-94.61565999999994
 21
-795.7322600000011
 31
0.0
  0
LINE
  5
141E
330
1394
100
AcDbEntity
  8
0
  6
CONTINU
 62
     7
100
AcDbLine
 10
564.48428
 20
-788.1695600000012
 30
0.0
 11
557.9343600000002
 21
-784.3872799999999
 31
0.0
  0
LINE
  5
141F
330
1394
100
AcDbEntity
  8
0
  6
CONTINU
 62
     7
100
AcDbLine
 10
-81.51567999999979
 20
-788.16902
 30
0.0
 11
-88.06571999999984
 21
-784.3874400000002
 31
0.0
  0
LINE
  5
1420
330
1394
100
AcDbEntity
  8
0
  6
CONTINU
 62
     7
100
AcDbLine
 10
549.78816
 20
-807.3456600000001
 30
0.0
 11
548.6751400000001
 21
-806.7031000000001
 31
0.0
  0
LINE
  5
1421
330
1394
100
AcDbEntity
  8
0
  6
CONTINU
 62
     7
100
AcDbLine
 10
567.1942799999999
 20
-777.1979400000011
 30
0.0
 11
566.081
 21
-776.5550200000011
 31
0.0
  0
LINE
  5
1422
330
1394
100
AcDbEntity
  8
0
  6
CONTINU
 62
     7
100
AcDbLine
 10
-96.21187999999985
 20
-807.345580000001
 30
0.0
 11
-97.32501999999985
 21
-806.7029600000001
 31
0.0
  0
LINE
  5
1423
330
1394
100
AcDbEntity
  8
0
  6
CONTINU
 62
     7
100
AcDbLine
 10
-78.80583999999979
 20
-777.1979400000011
 30
0.0
 11
-79.9191599999999
 21
-776.5552400000001
 31
0.0
  0
LINE
  5
1424
330
1394
100
AcDbEntity
  8
0
  6
CONTINU
 62
     7
100
AcDbLine
 10
550.9962800000001
 20
-807.7852600000001
 30
0.0
 11
549.7883000000001
 21
-807.3456600000001
 31
0.0
  0
LINE
  5
1425
330
1394
100
AcDbEntity
  8
0
  6
CONTINU
 62
     7
100
AcDbLine
 10
566.0810599999999
 20
-776.5556400000011
 30
0.0
 11
564.8728799999999
 21
-776.1159400000001
 31
0.0
  0
LINE
  5
1426
330
1394
100
AcDbEntity
  8
0
  6
CONTINU
 62
     7
100
AcDbLine
 10
-95.00373999999982
 20
-807.78548
 30
0.0
 11
-96.21153999999979
 21
-807.345580000001
 31
0.0
  0
LINE
  5
1427
330
1394
100
AcDbEntity
  8
0
  6
CONTINU
 62
     7
100
AcDbLine
 10
-79.91923999999984
 20
-776.5556400000011
 30
0.0
 11
-81.12711999999982
 21
-776.1155600000002
 31
0.0
  0
LINE
  5
1428
330
1394
100
AcDbEntity
  8
0
  6
CONTINU
 62
     7
100
AcDbLine
 10
556.0256800000001
 20
-809.1339800000012
 30
0.0
 11
550.9958800000001
 21
-807.78548
 31
0.0
  0
LINE
  5
1429
330
1394
100
AcDbEntity
  8
0
  6
CONTINU
 62
     7
100
AcDbLine
 10
564.87302
 20
-776.1159400000001
 30
0.0
 11
559.8431200000002
 21
-774.769660000001
 31
0.0
  0
LINE
  5
142A
330
1394
100
AcDbEntity
  8
0
  6
CONTINU
 62
     7
100
AcDbLine
 10
-89.97419999999978
 20
-809.1346000000001
 30
0.0
 11
-95.0034599999998
 21
-807.7861
 31
0.0
  0
LINE
  5
142B
330
1394
100
AcDbEntity
  8
0
  6
CONTINU
 62
     7
100
AcDbLine
 10
-81.12697999999983
 20
-776.1164000000012
 30
0.0
 11
-86.1563399999998
 21
-774.7679200000011
 31
0.0
  0
LINE
  5
142C
330
1394
100
AcDbEntity
  8
0
  6
CONTINU
 62
     7
100
AcDbLine
 10
557.2917800000001
 20
-809.3561600000001
 30
0.0
 11
556.0257599999999
 21
-809.132760000001
 31
0.0
  0
LINE
  5
142D
330
1394
100
AcDbEntity
  8
0
  6
CONTINU
 62
     7
100
AcDbLine
 10
-88.70833999999982
 20
-809.3559200000012
 30
0.0
 11
-89.97431999999985
 21
-809.132760000001
 31
0.0
  0
LINE
  5
142E
330
1394
100
AcDbEntity
  8
0
  6
CONTINU
 62
     7
100
AcDbLine
 10
559.8437199999999
 20
-774.7673000000002
 30
0.0
 11
558.5776
 21
-774.5450600000001
 31
0.0
  0
LINE
  5
142F
330
1394
100
AcDbEntity
  8
0
  6
CONTINU
 62
     7
100
AcDbLine
 10
-86.15629999999976
 20
-774.7681400000012
 30
0.0
 11
-87.42247999999984
 21
-774.5450600000001
 31
0.0
  0
LINE
  5
1430
330
1394
100
AcDbEntity
  8
0
  6
CONTINU
 62
     7
100
AcDbLine
 10
559.8431400000001
 20
-809.1330600000013
 30
0.0
 11
558.5772400000002
 21
-809.3561600000001
 31
0.0
  0
LINE
  5
1431
330
1394
100
AcDbEntity
  8
0
  6
CONTINU
 62
     7
100
AcDbLine
 10
-86.15703999999976
 20
-809.1331400000012
 30
0.0
 11
-87.42289999999984
 21
-809.3564600000002
 31
0.0
  0
LINE
  5
1432
330
1394
100
AcDbEntity
  8
0
  6
CONTINU
 62
     7
100
AcDbLine
 10
557.2919999999998
 20
-774.5444400000001
 30
0.0
 11
556.026
 21
-774.7678400000011
 31
0.0
  0
LINE
  5
1433
330
1394
100
AcDbEntity
  8
0
  6
CONTINU
 62
     7
100
AcDbLine
 10
-88.70803999999981
 20
-774.5444400000001
 30
0.0
 11
-89.97413999999986
 21
-774.767680000001
 31
0.0
  0
LINE
  5
1434
330
1394
100
AcDbEntity
  8
0
  6
CONTINU
 62
     7
100
AcDbLine
 10
564.8718399999999
 20
-807.7866400000011
 30
0.0
 11
559.8435000000001
 21
-809.1336800000012
 31
0.0
  0
LINE
  5
1435
330
1394
100
AcDbEntity
  8
0
  6
CONTINU
 62
     7
100
AcDbLine
 10
556.0259399999999
 20
-774.7684400000003
 30
0.0
 11
550.9957400000001
 21
-776.11694
 31
0.0
  0
LINE
  5
1436
330
1394
100
AcDbEntity
  8
0
  6
CONTINU
 62
     7
100
AcDbLine
 10
-81.12761999999984
 20
-807.7861
 30
0.0
 11
-86.15667999999981
 21
-809.1343600000012
 31
0.0
  0
LINE
  5
1437
330
1394
100
AcDbEntity
  8
0
  6
CONTINU
 62
     7
100
AcDbLine
 10
-89.97415999999988
 20
-774.7675200000001
 30
0.0
 11
-95.00361999999984
 21
-776.1155000000001
 31
0.0
  0
LINE
  5
1438
330
1394
100
AcDbEntity
  8
0
  6
CONTINU
 62
     7
100
AcDbLine
 10
566.0807
 20
-807.3458
 30
0.0
 11
564.8728799999999
 21
-807.7854200000011
 31
0.0
  0
LINE
  5
1439
330
1394
100
AcDbEntity
  8
0
  6
CONTINU
 62
     7
100
AcDbLine
 10
-79.91945999999979
 20
-807.3459600000001
 30
0.0
 11
-81.12745999999981
 21
-807.7857200000012
 31
0.0
  0
LINE
  5
143A
330
1394
100
AcDbEntity
  8
0
  6
CONTINU
 62
     7
100
AcDbLine
 10
550.9965599999999
 20
-776.1155000000001
 30
0.0
 11
549.78854
 21
-776.5550200000011
 31
0.0
  0
LINE
  5
143B
330
1394
100
AcDbEntity
  8
0
  6
CONTINU
 62
     7
100
AcDbLine
 10
-95.00361999999984
 20
-776.1155000000001
 30
0.0
 11
-96.21161999999985
 21
-776.5552400000001
 31
0.0
  0
LINE
  5
143C
330
1394
100
AcDbEntity
  8
0
  6
CONTINU
 62
     7
100
AcDbLine
 10
564.4844999999999
 20
-795.73188
 30
0.0
 11
557.93448
 21
-799.5136200000001
 31
0.0
  0
LINE
  5
143D
330
1394
100
AcDbEntity
  8
0
  6
CONTINU
 62
     7
100
AcDbLine
 10
-81.51537999999982
 20
-795.7320400000001
 30
0.0
 11
-88.06551999999992
 21
-799.5135400000001
 31
0.0
  0
LINE
  5
143E
330
1394
100
AcDbEntity
  8
0
  6
CONTINU
 62
     7
100
AcDbLine
 10
549.78842
 20
-776.5552400000001
 30
0.0
 11
548.6751800000002
 21
-777.1977200000012
 31
0.0
  0
LINE
  5
143F
330
1394
100
AcDbEntity
  8
0
  6
CONTINU
 62
     7
100
AcDbLine
 10
567.1942000000002
 20
-806.70288
 30
0.0
 11
566.0808400000002
 21
-807.3458
 31
0.0
  0
LINE
  5
1440
330
1394
100
AcDbEntity
  8
0
  6
CONTINU
 62
     7
100
AcDbLine
 10
-96.21149999999987
 20
-776.5550200000011
 30
0.0
 11
-97.32481999999977
 21
-777.1976400000012
 31
0.0
  0
LINE
  5
1441
330
1394
100
AcDbEntity
  8
0
  6
CONTINU
 62
     7
100
AcDbLine
 10
-78.80621999999982
 20
-806.70288
 30
0.0
 11
-79.91927999999989
 21
-807.3458
 31
0.0
  0
LINE
  5
1442
330
1394
100
AcDbEntity
  8
0
  6
CONTINU
 62
     7
100
AcDbLine
 10
557.9345999999999
 20
-784.3872000000012
 30
0.0
 11
551.38468
 21
-788.1685600000012
 31
0.0
  0
LINE
  5
1443
330
1394
100
AcDbEntity
  8
0
  6
CONTINU
 62
     7
100
AcDbLine
 10
-88.06571999999984
 20
-784.3866800000012
 30
0.0
 11
-94.6156199999999
 21
-788.1685600000012
 31
0.0
  0
LINE
  5
1444
330
1394
100
AcDbEntity
  8
0
  6
CONTINU
 62
     7
100
AcDbLine
 10
548.6751800000002
 20
-777.1979400000011
 30
0.0
 11
547.6904000000001
 21
-778.02428
 31
0.0
  0
LINE
  5
1445
330
1394
100
AcDbEntity
  8
0
  6
CONTINU
 62
     7
100
AcDbLine
 10
-97.32473999999983
 20
-777.1979400000011
 30
0.0
 11
-98.30961999999988
 21
-778.02428
 31
0.0
  0
LINE
  5
1446
330
1394
100
AcDbEntity
  8
0
  6
CONTINU
 62
     7
100
AcDbLine
 10
568.17884
 20
-805.8769200000011
 30
0.0
 11
567.1939999999999
 21
-806.7033400000012
 31
0.0
  0
LINE
  5
1447
330
1394
100
AcDbEntity
  8
0
  6
CONTINU
 62
     7
100
AcDbLine
 10
-77.82133999999979
 20
-805.8768400000001
 30
0.0
 11
-78.80613999999988
 21
-806.7032600000011
 31
0.0
  0
LINE
  5
1448
330
1394
100
AcDbEntity
  8
0
  6
CONTINU
 62
     7
100
AcDbLine
 10
547.6900999999998
 20
-778.02376
 30
0.0
 11
544.00864
 21
-781.7069200000012
 31
0.0
  0
LINE
  5
1449
330
1394
100
AcDbEntity
  8
0
  6
CONTINU
 62
     7
100
AcDbLine
 10
571.8606399999999
 20
-802.195060000001
 30
0.0
 11
568.17864
 21
-805.8776800000012
 31
0.0
  0
LINE
  5
144A
330
1394
100
AcDbEntity
  8
0
  6
CONTINU
 62
     7
100
AcDbLine
 10
-98.30943999999982
 20
-778.0239000000013
 30
0.0
 11
-101.9914999999998
 21
-781.70722
 31
0.0
  0
LINE
  5
144B
330
1394
100
AcDbEntity
  8
0
  6
CONTINU
 62
     7
100
AcDbLine
 10
-74.13877999999991
 20
-802.1952000000013
 30
0.0
 11
-77.82119999999981
 21
-805.8768400000001
 31
0.0
  0
LINE
  5
144C
330
1394
100
AcDbEntity
  8
0
  6
CONTINU
 62
     7
100
AcDbLine
 10
544.0086800000001
 20
-781.70638
 30
0.0
 11
543.18232
 21
-782.6908800000012
 31
0.0
  0
LINE
  5
144D
330
1394
100
AcDbEntity
  8
0
  6
CONTINU
 62
     7
100
AcDbLine
 10
572.6869599999999
 20
-801.2105600000001
 30
0.0
 11
571.8605
 21
-802.1952000000013
 31
0.0
  0
LINE
  5
144E
330
1394
100
AcDbEntity
  8
0
  6
CONTINU
 62
     7
100
AcDbLine
 10
-101.9914999999998
 20
-781.70638
 30
0.0
 11
-102.8178799999998
 21
-782.6911199999999
 31
0.0
  0
LINE
  5
144F
330
1394
100
AcDbEntity
  8
0
  6
CONTINU
 62
     7
100
AcDbLine
 10
-73.31313999999986
 20
-801.2104000000011
 30
0.0
 11
-74.13943999999981
 21
-802.1949000000002
 31
0.0
  0
LINE
  5
1450
330
1394
100
AcDbEntity
  8
0
  6
CONTINU
 62
     7
100
AcDbLine
 10
543.18226
 20
-782.6908800000012
 30
0.0
 11
542.5392800000001
 21
-783.8040800000012
 31
0.0
  0
LINE
  5
1451
330
1394
100
AcDbEntity
  8
0
  6
CONTINU
 62
     7
100
AcDbLine
 10
-102.8179199999997
 20
-782.6908000000001
 30
0.0
 11
-103.4609199999998
 21
-783.8040800000012
 31
0.0
  0
LINE
  5
1452
330
1394
100
AcDbEntity
  8
0
  6
CONTINU
 62
     7
100
AcDbLine
 10
573.3296799999999
 20
-800.0968200000011
 30
0.0
 11
572.68704
 21
-801.2099400000002
 31
0.0
  0
LINE
  5
1453
330
1394
100
AcDbEntity
  8
0
  6
CONTINU
 62
     7
100
AcDbLine
 10
-72.67053999999975
 20
-800.0968200000011
 30
0.0
 11
-73.3132199999998
 21
-801.2101000000003
 31
0.0
  0
LINE
  5
1454
330
1394
100
AcDbEntity
  8
0
  6
CONTINU
 62
     7
100
AcDbLine
 10
542.5393599999999
 20
-783.8043200000011
 30
0.0
 11
542.0996999999999
 21
-785.0122799999999
 31
0.0
  0
LINE
  5
1455
330
1394
100
AcDbEntity
  8
0
  6
CONTINU
 62
     7
100
AcDbLine
 10
573.7694399999999
 20
-798.8892400000011
 30
0.0
 11
573.3296799999999
 21
-800.0968200000011
 31
0.0
  0
LINE
  5
1456
330
1394
100
AcDbEntity
  8
0
  6
CONTINU
 62
     7
100
AcDbLine
 10
-103.4606799999997
 20
-783.8039400000002
 30
0.0
 11
-103.9003999999998
 21
-785.0120600000011
 31
0.0
  0
LINE
  5
1457
330
1394
100
AcDbEntity
  8
0
  6
CONTINU
 62
     7
100
AcDbLine
 10
-72.2305599999998
 20
-798.8890000000012
 30
0.0
 11
-72.6702799999999
 21
-800.0969000000011
 31
0.0
  0
LINE
  5
1458
330
1394
100
AcDbEntity
  8
0
  6
CONTINU
 62
     7
100
AcDbLine
 10
542.1000400000001
 20
-785.012900000001
 30
0.0
 11
540.75192
 21
-790.0429599999999
 31
0.0
  0
LINE
  5
1459
330
1394
100
AcDbEntity
  8
0
  6
CONTINU
 62
     7
100
AcDbLine
 10
575.1166999999999
 20
-793.8607000000001
 30
0.0
 11
573.7695399999999
 21
-798.8893800000012
 31
0.0
  0
LINE
  5
145A
330
1394
100
AcDbEntity
  8
0
  6
CONTINU
 62
     7
100
AcDbLine
 10
-103.9005599999998
 20
-785.0119800000011
 30
0.0
 11
-105.2478799999999
 21
-790.0425600000001
 31
0.0
  0
LINE
  5
145B
330
1394
100
AcDbEntity
  8
0
  6
CONTINU
 62
     7
100
AcDbLine
 10
-70.88293999999978
 20
-793.8584200000011
 30
0.0
 11
-72.23071999999982
 21
-798.8891600000011
 31
0.0
  0
LINE
  5
145C
330
1394
100
AcDbEntity
  8
0
  6
CONTINU
 62
     7
100
AcDbLine
 10
575.34046
 20
-792.5925400000012
 30
0.0
 11
575.1172000000003
 21
-793.85886
 31
0.0
  0
LINE
  5
145D
330
1394
100
AcDbEntity
  8
0
  6
CONTINU
 62
     7
100
AcDbLine
 10
-70.65969999999982
 20
-792.5931600000012
 30
0.0
 11
-70.88327999999993
 21
-793.8587200000011
 31
0.0
  0
LINE
  5
145E
330
1394
100
AcDbEntity
  8
0
  6
CONTINU
 62
     7
100
AcDbLine
 10
540.75204
 20
-790.0418800000011
 30
0.0
 11
540.5287799999999
 21
-791.3080600000012
 31
0.0
  0
LINE
  5
145F
330
1394
100
AcDbEntity
  8
0
  6
CONTINU
 62
     7
100
AcDbLine
 10
-105.2479799999998
 20
-790.0418800000011
 30
0.0
 11
-105.4712599999998
 21
-791.3080600000012
 31
0.0
  0
LINE
  5
1460
330
1394
100
AcDbEntity
  8
0
  6
CONTINU
 62
     7
100
AcDbLine
 10
-215.0654999999999
 20
-1635.20048
 30
0.0
 11
-215.0654999999999
 21
-754.7005400000012
 31
0.0
  0
LINE
  5
1461
330
1394
100
AcDbEntity
  8
0
  6
CONTINU
 62
     7
100
AcDbLine
 10
-105.4713399999998
 20
-792.5931600000012
 30
0.0
 11
-105.4712599999998
 21
-791.307760000001
 31
0.0
  0
LINE
  5
1462
330
1394
100
AcDbEntity
  8
0
  6
CONTINU
 62
     7
100
AcDbLine
 10
-94.61565999999994
 20
-795.7320400000001
 30
0.0
 11
-94.61547999999982
 21
-788.1688000000011
 31
0.0
  0
LINE
  5
1463
330
1394
100
AcDbEntity
  8
0
  6
CONTINU
 62
     7
100
AcDbLine
 10
-81.51549999999987
 20
-795.7322000000011
 30
0.0
 11
-81.51563999999989
 21
-788.1688000000011
 31
0.0
  0
LINE
  5
1464
330
1394
100
AcDbEntity
  8
0
  6
CONTINU
 62
     7
100
AcDbLine
 10
-70.65973999999986
 20
-792.5936200000012
 30
0.0
 11
-70.65967999999978
 21
-791.3080600000012
 31
0.0
  0
LINE
  5
1465
330
1394
100
AcDbEntity
  8
0
  6
CONTINU
 62
     7
100
AcDbLine
 10
540.52882
 20
-792.5931600000012
 30
0.0
 11
540.52888
 21
-791.307760000001
 31
0.0
  0
LINE
  5
1466
330
1394
100
AcDbEntity
  8
0
  6
CONTINU
 62
     7
100
AcDbLine
 10
551.3844600000002
 20
-795.7320400000001
 30
0.0
 11
551.38464
 21
-788.1688000000011
 31
0.0
  0
LINE
  5
1467
330
1394
100
AcDbEntity
  8
0
  6
CONTINU
 62
     7
100
AcDbLine
 10
564.4846199999999
 20
-795.7322000000011
 30
0.0
 11
564.4844999999999
 21
-788.1688000000011
 31
0.0
  0
LINE
  5
1468
330
1394
100
AcDbEntity
  8
0
  6
CONTINU
 62
     7
100
AcDbLine
 10
575.3403999999999
 20
-792.5936200000012
 30
0.0
 11
575.34046
 21
-791.3080600000012
 31
0.0
  0
LINE
  5
1469
330
1394
100
AcDbEntity
  8
0
  6
CONTINU
 62
     7
100
AcDbLine
 10
684.9347399999999
 20
-1634.95048
 30
0.0
 11
684.93458
 21
-754.9505599999999
 31
0.0
  0
LINE
  5
146A
330
1394
100
AcDbEntity
  8
0
  6
CONTINU
 62
     7
100
AcDbLine
 10
681.9346
 20
-751.9505200000001
 30
0.0
 11
-212.3154799999997
 21
-751.9505200000001
 31
0.0
  0
LINE
  5
146B
330
1394
100
AcDbEntity
  8
0
  6
CONTINU
 62
     7
100
AcDbLine
 10
558.5776400000001
 20
-774.5447600000011
 30
0.0
 11
557.2921200000002
 21
-774.5445200000001
 31
0.0
  0
LINE
  5
146C
330
1394
100
AcDbEntity
  8
0
  6
CONTINU
 62
     7
100
AcDbLine
 10
-87.42247999999984
 20
-774.5447600000011
 30
0.0
 11
-88.70803999999981
 21
-774.5445200000001
 31
0.0
  0
LINE
  5
146D
330
1394
100
AcDbEntity
  8
0
  6
CONTINU
 62
     7
100
AcDbLine
 10
558.5772000000002
 20
-809.3563000000001
 30
0.0
 11
557.2917599999999
 21
-809.3563000000001
 31
0.0
  0
LINE
  5
146E
330
1394
100
AcDbEntity
  8
0
  6
CONTINU
 62
     7
100
AcDbLine
 10
-87.42293999999983
 20
-809.3563000000001
 30
0.0
 11
-88.70837999999986
 21
-809.3563000000001
 31
0.0
  0
LINE
  5
146F
330
1394
100
AcDbEntity
  8
0
  6
CONTINU
 62
     7
100
AcDbLine
 10
681.9347200000001
 20
-1637.95048
 30
0.0
 11
-212.3154799999997
 21
-1637.95048
 31
0.0
  0
LINE
  5
1470
330
1394
100
AcDbEntity
  8
0
  6
AXES
 62
     7
100
AcDbLine
 10
-87.99215999999988
 20
-765.8493
 30
0.0
 11
-87.99215999999988
 21
-817.9670600000001
 31
0.0
  0
LINE
  5
1471
330
1394
100
AcDbEntity
  8
0
  6
AXES
 62
     7
100
AcDbLine
 10
-114.0510199999998
 20
-791.9081800000001
 30
0.0
 11
-61.93331999999979
 21
-791.9081800000001
 31
0.0
  0
LINE
  5
1472
330
1394
100
AcDbEntity
  8
0
  6
AXES
 62
     7
100
AcDbLine
 10
557.93464
 20
-765.8240400000011
 30
0.0
 11
557.93464
 21
-818.0770000000002
 31
0.0
  0
LINE
  5
1473
330
1394
100
AcDbEntity
  8
0
  6
AXES
 62
     7
100
AcDbLine
 10
584.06112
 20
-791.9505200000001
 30
0.0
 11
531.8081399999999
 21
-791.9505200000001
 31
0.0
  0
ARC
  5
1474
330
1394
100
AcDbEntity
  8
0
  6
CONTINU
 62
     7
100
AcDbCircle
 10
-681.9345799999999
 20
-754.9505599999999
 30
0.0
 40
3.0
210
0.0
220
0.0
230
-1.0
100
AcDbArc
 50
90.0
 51
180.0000610000009
  0
ARC
  5
1475
330
1394
100
AcDbEntity
  8
0
  6
CONTINU
 62
     7
100
AcDbCircle
 10
-681.9347200000001
 20
-1634.95048
 30
0.0
 40
3.0
210
0.0
220
0.0
230
-1.0
100
AcDbArc
 50
179.9997409999948
 51
270.0
  0
ARC
  5
1476
330
1394
100
AcDbEntity
  8
0
  6
CONTINU
 62
     7
100
AcDbCircle
 10
-612.8133
 20
-2123.82874
 30
0.0
 40
3.0
210
0.0
220
0.0
230
-1.0
100
AcDbArc
 50
190.0007929999948
 51
270.0
  0
ARC
  5
1477
330
1394
100
AcDbEntity
  8
0
  6
CONTINU
 62
     7
100
AcDbCircle
 10
142.9471999999998
 20
-2123.82874
 30
0.0
 40
3.0
210
0.0
220
0.0
230
-1.0
100
AcDbArc
 50
270.0
 51
349.9991209999923
  0
ENDBLK
  5
1479
330
1394
100
AcDbEntity
  8
0
100
AcDbBlockEnd
  0
BLOCK
  5
1E12
330
1D2E
100
AcDbEntity
  8
0
100
AcDbBlockBegin
  2
A$C266F1DE4
 70
     0
 10
0.0
 20
0.0
 30
0.0
  3
A$C266F1DE4
  1

  0
ARC
  5
1D2F
330
1D2E
100
AcDbEntity
  8
0
  6
CONTINU
 62
     7
100
AcDbCircle
 10
-834.2870799999996
 20
-913.6352622222219
 30
0.0
 40
3.055628888888888
100
AcDbArc
 50
179.974471999989
 51
270.0
  0
ARC
  5
1D30
330
1D2E
100
AcDbEntity
  8
0
  6
CONTINU
 62
     7
100
AcDbCircle
 10
-834.2873488888884
 20
-430.8575822222228
 30
0.0
 40
3.055384444444443
100
AcDbArc
 50
90.09141499999756
 51
180.0511319999895
  0
ARC
  5
1D31
330
1D2E
100
AcDbEntity
  8
0
  6
CONTINU
 62
     7
100
AcDbCircle
 10
259.6016622222223
 20
-913.6355311111106
 30
0.0
 40
3.055384444444443
100
AcDbArc
 50
270.0
 51
359.9962079999908
  0
ARC
  5
1D32
330
1D2E
100
AcDbEntity
  8
0
  6
CONTINU
 62
     7
100
AcDbCircle
 10
259.6016622222223
 20
-430.8575822222228
 30
0.0
 40
3.055457777777776
100
AcDbArc
 50
0.013734000007765
 51
90.09710699999928
  0
CIRCLE
  5
1D33
330
1D2E
100
AcDbEntity
  8
0
  6
CONTINU
 62
     7
100
AcDbCircle
 10
-764.0093511111107
 20
-900.8020755555557
 30
0.0
 40
9.777777777777778
  0
CIRCLE
  5
1D34
330
1D2E
100
AcDbEntity
  8
0
  6
CONTINU
 62
     7
100
AcDbCircle
 10
189.3238355555559
 20
-900.8020755555557
 30
0.0
 40
9.777777777777778
  0
CIRCLE
  5
1D35
330
1D2E
100
AcDbEntity
  8
0
  6
CONTINU
 62
     7
100
AcDbCircle
 10
189.3238355555559
 20
-443.6909399999999
 30
0.0
 40
9.777777777777778
  0
CIRCLE
  5
1D36
330
1D2E
100
AcDbEntity
  8
0
  6
CONTINU
 62
     7
100
AcDbCircle
 10
-764.0093511111107
 20
-443.6909399999999
 30
0.0
 40
9.777777777777778
  0
CIRCLE
  5
1D37
330
1D2E
100
AcDbEntity
  8
0
  6
CONTINU
 62
     7
100
AcDbCircle
 10
189.3235422222226
 20
-900.8018799999998
 30
0.0
 40
4.33896222222222
  0
CIRCLE
  5
1D38
330
1D2E
100
AcDbEntity
  8
0
  6
CONTINU
 62
     7
100
AcDbCircle
 10
-764.0095711111108
 20
-900.8017088888887
 30
0.0
 40
4.336688888888888
  0
CIRCLE
  5
1D39
330
1D2E
100
AcDbEntity
  8
0
  6
CONTINU
 62
     7
100
AcDbCircle
 10
-764.0095711111108
 20
-443.6909399999999
 30
0.0
 40
4.277753333333333
  0
CIRCLE
  5
1D3A
330
1D2E
100
AcDbEntity
  8
0
  6
CONTINU
 62
     7
100
AcDbCircle
 10
189.3235422222226
 20
-443.6909399999999
 30
0.0
 40
4.277753333333333
  0
LINE
  5
1D3B
330
1D2E
100
AcDbEntity
  8
0
  6
CONTINU
 62
     7
100
AcDbLine
 10
262.6571444444447
 20
-913.6353599999997
 30
0.0
 11
262.6571444444447
 21
-430.8575822222228
 31
0.0
  0
LINE
  5
1D3C
330
1D2E
100
AcDbEntity
  8
0
  6
CONTINU
 62
     7
100
AcDbLine
 10
-837.3428066666663
 20
-913.6353599999997
 30
0.0
 11
-837.3428066666663
 21
-430.8575822222228
 31
0.0
  0
LINE
  5
1D3D
330
1D2E
100
AcDbEntity
  8
0
  6
CONTINU
 62
     7
100
AcDbLine
 10
-834.2873488888884
 20
-427.8020266666667
 30
0.0
 11
-810.1483866666663
 21
-427.8020266666667
 31
0.0
  0
LINE
  5
1D3E
330
1D2E
100
AcDbEntity
  8
0
  6
CONTINU
 62
     7
100
AcDbLine
 10
235.4627000000004
 20
-427.8020266666667
 30
0.0
 11
259.6016622222223
 21
-427.8020266666667
 31
0.0
  0
LINE
  5
1D3F
330
1D2E
100
AcDbEntity
  8
0
  6
CONTINU
 62
     7
100
AcDbLine
 10
-834.2872511111107
 20
-916.6908177777777
 30
0.0
 11
-808.8083177777775
 21
-916.6908177777777
 31
0.0
  0
LINE
  5
1D40
330
1D2E
100
AcDbEntity
  8
0
  6
CONTINU
 62
     7
100
AcDbLine
 10
235.1572177777779
 20
-916.6908177777777
 30
0.0
 11
259.6016622222223
 21
-916.6908177777777
 31
0.0
  0
LINE
  5
1D41
330
1D2E
100
AcDbEntity
  8
0
  6
CONTINU
 62
     7
100
AcDbLine
 10
-808.8083177777775
 20
-916.6908177777777
 30
0.0
 11
235.1570711111114
 21
-916.6908177777777
 31
0.0
  0
ARC
  5
1D42
330
1D2E
100
AcDbEntity
  8
0
  6
CONTINU
 62
     7
100
AcDbCircle
 10
259.4166911111113
 20
-424.4167399999996
 30
0.0
 40
3.361013333333333
100
AcDbArc
 50
270.0517200000028
 51
359.992096000008
  0
ARC
  5
1D43
330
1D2E
100
AcDbEntity
  8
0
  6
CONTINU
 62
     7
100
AcDbCircle
 10
259.4166177777779
 20
-310.9350444444449
 30
0.0
 40
3.361037777777776
100
AcDbArc
 50
0.0128530000048081
 51
90.08229100000024
  0
ARC
  5
1D44
330
1D2E
100
AcDbEntity
  8
0
  6
CONTINU
 62
     7
100
AcDbCircle
 10
-833.861404444444
 20
-424.4167399999996
 30
0.0
 40
3.361037777777776
100
AcDbArc
 50
179.9710079999981
 51
270.0554280000018
  0
ARC
  5
1D45
330
1D2E
100
AcDbEntity
  8
0
  6
CONTINU
 62
     7
100
AcDbCircle
 10
-833.8613066666663
 20
-310.9350444444449
 30
0.0
 40
3.361013333333333
100
AcDbArc
 50
90.08238200000043
 51
180.0397339999978
  0
CIRCLE
  5
1D46
330
1D2E
100
AcDbEntity
  8
0
  6
CONTINU
 62
     7
100
AcDbCircle
 10
189.4438822222223
 20
-409.4440777777768
 30
0.0
 40
4.338864444444443
  0
CIRCLE
  5
1D47
330
1D2E
100
AcDbEntity
  8
0
  6
CONTINU
 62
     7
100
AcDbCircle
 10
-763.889573333333
 20
-409.4407044444437
 30
0.0
 40
4.342066666666664
  0
LINE
  5
1D48
330
1D2E
100
AcDbEntity
  8
0
  6
CONTINU
 62
     7
100
AcDbLine
 10
-833.2135044444441
 20
-304.9749999999999
 30
0.0
 11
-574.4446644444442
 21
0.0
 31
0.0
  0
LINE
  5
1D49
330
1D2E
100
AcDbEntity
  8
0
  6
CONTINU
 62
     7
100
AcDbLine
 10
256.2058644444447
 20
-307.1495288888887
 30
0.0
 11
258.7687422222223
 21
-304.9749999999999
 31
0.0
  0
LINE
  5
1D4A
330
1D2E
100
AcDbEntity
  8
0
  6
CONTINU
 62
     7
100
AcDbLine
 10
-833.2135044444441
 20
-304.9749999999999
 30
0.0
 11
-830.6508711111106
 21
-307.1495288888887
 31
0.0
  0
LINE
  5
1D4B
330
1D2E
100
AcDbEntity
  8
0
  6
CONTINU
 62
     7
100
AcDbLine
 10
2.839980000000082
 20
-3.347055555555016
 30
0.0
 11
258.7687666666669
 21
-304.9749999999999
 31
0.0
  0
LINE
  5
1D4C
330
1D2E
100
AcDbEntity
  8
0
  6
CONTINU
 62
     7
100
AcDbLine
 10
262.7776800000004
 20
-424.4165444444447
 30
0.0
 11
262.7776800000004
 21
-310.9350444444449
 31
0.0
  0
LINE
  5
1D4D
330
1D2E
100
AcDbEntity
  8
0
  6
CONTINU
 62
     7
100
AcDbLine
 10
-837.2224422222219
 20
-424.4165444444447
 30
0.0
 11
-837.2224422222219
 21
-310.9350444444449
 31
0.0
  0
LINE
  5
1D4E
330
1D2E
100
AcDbEntity
  8
0
  6
CONTINU
 62
     7
100
AcDbLine
 10
-574.4446155555554
 20
0.0
 30
0.0
 11
0.0
 21
0.0
 31
0.0
  0
SPLINE
  5
1D4F
330
1D2E
100
AcDbEntity
  8
0
  6
CONTINU
 62
     7
100
AcDbSpline
210
0.0
220
0.0
230
1.0
 70
     8
 71
     5
 72
    12
 73
     6
 74
     0
 42
0.0000000001
 43
0.0000000001
 40
0.0
 40
0.0
 40
0.0
 40
0.0
 40
0.0
 40
0.0
 40
1.0
 40
1.0
 40
1.0
 40
1.0
 40
1.0
 40
1.0
 10
262.7776499845051
 20
-399.8864848413427
 30
0.0
 10
262.7776499845051
 20
-399.7960714285378
 30
0.0
 10
262.7776499845051
 20
-399.7291006023447
 30
0.0
 10
262.7776872837681
 20
-399.6849942241916
 30
0.0
 10
262.7776872837681
 20
-399.6632394292169
 30
0.0
 10
262.7776872837681
 20
-399.6632301044006
 30
0.0
  0
LINE
  5
1D50
330
1D2E
100
AcDbEntity
  8
0
  6
CONTINU
 62
     7
100
AcDbLine
 10
-0.0000244444440796
 20
0.0
 30
0.0
 11
2.840126666666947
 21
-3.347226666666756
 31
0.0
  0
LINE
  5
1D51
330
1D2E
100
AcDbEntity
  8
0
  6
CONTINU
 62
     7
100
AcDbLine
 10
-1.556011111110933
 20
0.0
 30
0.0
 11
-0.0000244444440796
 21
0.0
 31
0.0
  0
LINE
  5
1D52
330
1D2E
100
AcDbEntity
  8
0
  6
CONTINU
 62
     7
100
AcDbLine
 10
-833.8611111111108
 20
-427.7777777777778
 30
0.0
 11
259.4167155555556
 21
-427.7777777777778
 31
0.0
  0
CIRCLE
  5
1D53
330
1D2E
100
AcDbEntity
  8
0
  6
CONTINU
 62
     7
100
AcDbCircle
 10
189.4438822222223
 20
-409.4440777777768
 30
0.0
 40
9.777777777777778
  0
LINE
  5
1D54
330
1D2E
100
AcDbEntity
  8
0
  6
CONTINU
 62
     7
100
AcDbLine
 10
259.4166177777779
 20
-307.5740066666667
 30
0.0
 11
256.2058644444447
 21
-307.1495288888887
 31
0.0
  0
CIRCLE
  5
1D55
330
1D2E
100
AcDbEntity
  8
0
  6
CONTINU
 62
     7
100
AcDbCircle
 10
-763.889573333333
 20
-409.4407044444437
 30
0.0
 40
9.777777777777778
  0
LINE
  5
1D56
330
1D2E
100
AcDbEntity
  8
0
  6
CONTINU
 62
     7
100
AcDbLine
 10
-833.8613066666663
 20
-307.5740066666667
 30
0.0
 11
-830.6508711111106
 21
-307.1495288888887
 31
0.0
  0
LINE
  5
1D57
330
1D2E
100
AcDbEntity
  8
0
  6
CONTINU
 62
     7
100
AcDbLine
 10
-837.3024488888885
 20
-1153.717375555556
 30
0.0
 11
-861.7468933333332
 21
-1153.717375555556
 31
0.0
  0
LINE
  5
1D58
330
1D2E
100
AcDbEntity
  8
0
  6
CONTINU
 62
     7
100
AcDbLine
 10
-861.7468933333332
 20
-1153.717473333334
 30
0.0
 11
-861.7468933333332
 21
-989.9396711111105
 31
0.0
  0
LINE
  5
1D59
330
1D2E
100
AcDbEntity
  8
0
  6
CONTINU
 62
     7
100
AcDbLine
 10
-837.3024488888885
 20
-989.9395733333337
 30
0.0
 11
-861.7468933333332
 21
-989.9395733333337
 31
0.0
  0
LINE
  5
1D5A
330
1D2E
100
AcDbEntity
  8
0
  6
CONTINU
 62
     7
100
AcDbLine
 10
260.959575555556
 20
-2118.053911111111
 30
0.0
 11
-835.2747577777776
 21
-2118.053911111111
 31
0.0
  0
ARC
  5
1D5B
330
1D2E
100
AcDbEntity
  8
0
  6
CONTINU
 62
     7
100
AcDbCircle
 10
807.3572955555551
 20
-2077.799068888888
 30
0.0
 40
1.83233111111111
210
0.0
220
0.0
230
-1.0
100
AcDbArc
 50
180.0968169999977
 51
218.698654000001
  0
ARC
  5
1D5C
330
1D2E
100
AcDbEntity
  8
0
  6
CONTINU
 62
     7
100
AcDbCircle
 10
-232.7535222222223
 20
-2077.79858
 30
0.0
 40
1.833602222222221
210
0.0
220
0.0
230
-1.0
100
AcDbArc
 50
321.3141670000039
 51
0.0784489999992532
  0
LINE
  5
1D5D
330
1D2E
100
AcDbEntity
  8
0
  6
CONTINU
 62
     7
100
AcDbLine
 10
-752.768793333333
 20
-2596.427411111111
 30
0.0
 11
-836.9076222222219
 21
-2119.293293333333
 31
0.0
  0
LINE
  5
1D5E
330
1D2E
100
AcDbEntity
  8
0
  6
CONTINU
 62
     7
100
AcDbLine
 10
261.6754800000003
 20
-2116.848824444444
 30
0.0
 11
231.3206622222223
 21
-2078.942653333333
 31
0.0
  0
LINE
  5
1D5F
330
1D2E
100
AcDbEntity
  8
0
  6
CONTINU
 62
     7
100
AcDbLine
 10
-805.9286399999997
 20
-2078.946711111111
 30
0.0
 11
-836.2838977777775
 21
-2116.85254
 31
0.0
  0
LINE
  5
1D60
330
1D2E
100
AcDbEntity
  8
0
  6
CONTINU
 62
     7
100
AcDbLine
 10
262.2996688888891
 20
-2119.28926
 30
0.0
 11
178.1603511111111
 21
-2596.427411111111
 31
0.0
  0
LINE
  5
1D61
330
1D2E
100
AcDbEntity
  8
0
  6
CONTINU
 62
     7
100
AcDbLine
 10
-805.5247688888885
 20
-2077.798702222222
 30
0.0
 11
-805.5247688888885
 21
-2001.939719999999
 31
0.0
  0
LINE
  5
1D62
330
1D2E
100
AcDbEntity
  8
0
  6
CONTINU
 62
     7
100
AcDbLine
 10
230.9199444444446
 20
-2077.798873333333
 30
0.0
 11
230.9199444444446
 21
-2001.939866666666
 31
0.0
  0
LINE
  5
1D63
330
1D2E
100
AcDbEntity
  8
0
  6
CONTINU
 62
     7
100
AcDbLine
 10
230.8491533333337
 20
-2078.763548888888
 30
0.0
 11
-805.1714488888887
 21
-2078.763548888888
 31
0.0
  0
LINE
  5
1D64
330
1D2E
100
AcDbEntity
  8
0
  6
CONTINU
 62
     7
100
AcDbLine
 10
174.5493444444446
 20
-2599.457324444444
 30
0.0
 11
-749.1578599999996
 21
-2599.457324444444
 31
0.0
  0
POLYLINE
  5
1D65
330
1D2E
100
AcDbEntity
  8
0
  6
CONTINU
 62
     7
100
AcDb2dPolyline
 66
     1
 10
0.0
 20
0.0
 30
0.0
  0
VERTEX
  5
1D66
330
1D65
100
AcDbEntity
  8
0
100
AcDbVertex
100
AcDb2dVertex
 10
261.6756022222223
 20
-2116.848702222222
 30
0.0
  0
VERTEX
  5
1D67
330
1D65
100
AcDbEntity
  8
0
100
AcDbVertex
100
AcDb2dVertex
 10
261.9214155555558
 20
-2117.204515555555
 30
0.0
  0
VERTEX
  5
1D68
330
1D65
100
AcDbEntity
  8
0
100
AcDbVertex
100
AcDb2dVertex
 10
262.1143066666667
 20
-2117.591471111111
 30
0.0
  0
VERTEX
  5
1D69
330
1D65
100
AcDbEntity
  8
0
100
AcDbVertex
100
AcDb2dVertex
 10
262.2508777777779
 20
-2118.001697777777
 30
0.0
  0
VERTEX
  5
1D6A
330
1D65
100
AcDbEntity
  8
0
100
AcDbVertex
100
AcDb2dVertex
 10
262.3279755555558
 20
-2118.427177777777
 30
0.0
  0
VERTEX
  5
1D6B
330
1D65
100
AcDbEntity
  8
0
100
AcDbVertex
100
AcDb2dVertex
 10
262.3444266666668
 20
-2118.859306666666
 30
0.0
  0
VERTEX
  5
1D6C
330
1D65
100
AcDbEntity
  8
0
100
AcDbVertex
100
AcDb2dVertex
 10
262.2996200000003
 20
-2119.28926
 30
0.0
  0
SEQEND
  5
1D6D
330
1D65
100
AcDbEntity
  8
0
  0
SPLINE
  5
1D6E
330
1D2E
100
AcDbEntity
  8
0
  6
CONTINU
 62
     7
100
AcDbSpline
210
0.0
220
0.0
230
1.0
 70
     8
 71
     5
 72
    12
 73
     6
 74
     0
 42
0.0000000001
 43
0.0000000001
 40
0.0
 40
0.0
 40
0.0
 40
0.0
 40
0.0
 40
0.0
 40
1.0
 40
1.0
 40
1.0
 40
1.0
 40
1.0
 40
1.0
 10
-803.8622046222531
 20
-2078.440946696792
 30
0.0
 10
-803.860675352482
 20
-2078.440573704165
 30
0.0
 10
-803.859146082711
 20
-2078.440200711537
 30
0.0
 10
-803.8576168129399
 20
-2078.43982771891
 30
0.0
 10
-803.8560129446434
 20
-2078.439492025546
 30
0.0
 10
-803.8544836748723
 20
-2078.439119032919
 30
0.0
  0
POLYLINE
  5
1D6F
330
1D2E
100
AcDbEntity
  8
0
  6
CONTINU
 62
     7
100
AcDb2dPolyline
 66
     1
 10
0.0
 20
0.0
 30
0.0
  0
VERTEX
  5
1D70
330
1D6F
100
AcDbEntity
  8
0
100
AcDbVertex
100
AcDb2dVertex
 10
-836.9078177777774
 20
-2119.293342222222
 30
0.0
  0
VERTEX
  5
1D71
330
1D6F
100
AcDbEntity
  8
0
100
AcDbVertex
100
AcDb2dVertex
 10
-836.9525755555553
 20
-2118.863339999999
 30
0.0
  0
VERTEX
  5
1D72
330
1D6F
100
AcDbEntity
  8
0
100
AcDbVertex
100
AcDb2dVertex
 10
-836.9360755555552
 20
-2118.431186666666
 30
0.0
  0
VERTEX
  5
1D73
330
1D6F
100
AcDbEntity
  8
0
100
AcDbVertex
100
AcDb2dVertex
 10
-836.8589533333331
 20
-2118.00578
 30
0.0
  0
VERTEX
  5
1D74
330
1D6F
100
AcDbEntity
  8
0
100
AcDbVertex
100
AcDb2dVertex
 10
-836.7224311111106
 20
-2117.595553333333
 30
0.0
  0
VERTEX
  5
1D75
330
1D6F
100
AcDbEntity
  8
0
100
AcDbVertex
100
AcDb2dVertex
 10
-836.5295155555552
 20
-2117.208622222221
 30
0.0
  0
VERTEX
  5
1D76
330
1D6F
100
AcDbEntity
  8
0
100
AcDbVertex
100
AcDb2dVertex
 10
-836.2837999999996
 20
-2116.852784444444
 30
0.0
  0
SEQEND
  5
1D77
330
1D6F
100
AcDbEntity
  8
0
  0
ARC
  5
1D78
330
1D2E
100
AcDbEntity
  8
0
  6
CONTINU
 62
     7
100
AcDbCircle
 10
833.941313333333
 20
-1998.578535555555
 30
0.0
 40
3.360964444444443
210
0.0
220
0.0
230
-1.0
100
AcDbArc
 50
270.0
 51
0.002692000000948
  0
ARC
  5
1D79
330
1D2E
100
AcDbEntity
  8
0
  6
CONTINU
 62
     7
100
AcDbCircle
 10
833.941313333333
 20
-922.4115999999998
 30
0.0
 40
3.361062222222221
210
0.0
220
0.0
230
-1.0
100
AcDbArc
 50
359.9973870000123
 51
90.0
  0
CIRCLE
  5
1D7A
330
1D2E
100
AcDbEntity
  8
0
  6
CONTINU
 62
     7
100
AcDbCircle
 10
-189.3642422222223
 20
-1986.050586666666
 30
0.0
 40
9.777802222222222
210
0.0
220
0.0
230
-1.0
  0
CIRCLE
  5
1D7B
330
1D2E
100
AcDbEntity
  8
0
  6
CONTINU
 62
     7
100
AcDbCircle
 10
763.9691888888885
 20
-1986.050586666666
 30
0.0
 40
9.777802222222222
210
0.0
220
0.0
230
-1.0
  0
CIRCLE
  5
1D7C
330
1D2E
100
AcDbEntity
  8
0
  6
CONTINU
 62
     7
100
AcDbCircle
 10
763.9691888888885
 20
-934.9395733333338
 30
0.0
 40
9.777802222222222
210
0.0
220
0.0
230
-1.0
  0
CIRCLE
  5
1D7D
330
1D2E
100
AcDbEntity
  8
0
  6
CONTINU
 62
     7
100
AcDbCircle
 10
-189.3642422222223
 20
-934.9395733333338
 30
0.0
 40
9.777802222222222
210
0.0
220
0.0
230
-1.0
  0
ARC
  5
1D7E
330
1D2E
100
AcDbEntity
  8
0
  6
CONTINU
 62
     7
100
AcDbCircle
 10
-96.82708444444472
 20
-974.0876688888887
 30
0.0
 40
9.012348888888887
210
0.0
220
0.0
230
-1.0
100
AcDbArc
 50
314.9980010000044
 51
345.0043529999967
  0
ARC
  5
1D7F
330
1D2E
100
AcDbEntity
  8
0
  6
CONTINU
 62
     7
100
AcDbCircle
 10
-95.179968888889
 20
-967.9395244444448
 30
0.0
 40
9.012691111111106
210
0.0
220
0.0
230
-1.0
100
AcDbArc
 50
344.9978060000062
 51
15.00216899999615
  0
ARC
  5
1D80
330
1D2E
100
AcDbEntity
  8
0
  6
CONTINU
 62
     7
100
AcDbCircle
 10
-96.82588666666674
 20
-961.7914044444438
 30
0.0
 40
9.011297777777775
210
0.0
220
0.0
230
-1.0
100
AcDbArc
 50
14.99764700000642
 51
45.00741199999459
  0
ARC
  5
1D81
330
1D2E
100
AcDbEntity
  8
0
  6
CONTINU
 62
     7
100
AcDbCircle
 10
-101.3306555555557
 20
-957.2967555555559
 30
0.0
 40
9.018508888888886
210
0.0
220
0.0
230
-1.0
100
AcDbArc
 50
45.01011300000643
 51
74.99349999999862
  0
ARC
  5
1D82
330
1D2E
100
AcDbEntity
  8
0
  6
CONTINU
 62
     7
100
AcDbCircle
 10
-107.4757200000001
 20
-955.6496155555558
 30
0.0
 40
9.018264444444442
210
0.0
220
0.0
230
-1.0
100
AcDbArc
 50
75.00669899999595
 51
104.993172000006
  0
ARC
  5
1D83
330
1D2E
100
AcDbEntity
  8
0
  6
CONTINU
 62
     7
100
AcDbCircle
 10
-113.620857777778
 20
-957.2952644444438
 30
0.0
 40
9.017091111111108
210
0.0
220
0.0
230
-1.0
100
AcDbArc
 50
105.0075680000023
 51
134.9977109999993
  0
ARC
  5
1D84
330
1D2E
100
AcDbEntity
  8
0
  6
CONTINU
 62
     7
100
AcDbCircle
 10
-118.1234755555557
 20
-961.7914044444438
 30
0.0
 40
9.01252
210
0.0
220
0.0
230
-1.0
100
AcDbArc
 50
135.0031130000075
 51
165.0058439999994
  0
ARC
  5
1D85
330
1D2E
100
AcDbEntity
  8
0
  6
CONTINU
 62
     7
100
AcDbCircle
 10
-119.7702244444446
 20
-967.9398177777777
 30
0.0
 40
9.013522222222221
210
0.0
220
0.0
230
-1.0
100
AcDbArc
 50
164.9981379999918
 51
195.0007319999964
  0
ARC
  5
1D86
330
1D2E
100
AcDbEntity
  8
0
  6
CONTINU
 62
     7
100
AcDbCircle
 10
-118.124208888889
 20
-974.0873755555558
 30
0.0
 40
9.012177777777775
210
0.0
220
0.0
230
-1.0
100
AcDbArc
 50
195.0002140000087
 51
225.0054170000066
  0
ARC
  5
1D87
330
1D2E
100
AcDbEntity
  8
0
  6
CONTINU
 62
     7
100
AcDbCircle
 10
-113.6226422222223
 20
-978.5880133333325
 30
0.0
 40
9.012911111111108
210
0.0
220
0.0
230
-1.0
100
AcDbArc
 50
224.9950559999904
 51
254.998763999999
  0
ARC
  5
1D88
330
1D2E
100
AcDbEntity
  8
0
  6
CONTINU
 62
     7
100
AcDbCircle
 10
-107.4754266666667
 20
-980.2355199999997
 30
0.0
 40
9.012202222222221
210
0.0
220
0.0
230
-1.0
100
AcDbArc
 50
254.9973450000032
 51
285.0016399999983
  0
ARC
  5
1D89
330
1D2E
100
AcDbEntity
  8
0
  6
CONTINU
 62
     7
100
AcDbCircle
 10
-101.3292377777778
 20
-978.5844688888888
 30
0.0
 40
9.016211111111106
210
0.0
220
0.0
230
-1.0
100
AcDbArc
 50
285.0020900000026
 51
314.9941900000054
  0
ARC
  5
1D8A
330
1D2E
100
AcDbEntity
  8
0
  6
CONTINU
 62
     7
100
AcDbCircle
 10
688.2263422222219
 20
-978.5841755555559
 30
0.0
 40
9.016553333333332
210
0.0
220
0.0
230
-1.0
100
AcDbArc
 50
285.0025630000017
 51
314.99307299999
  0
ARC
  5
1D8B
330
1D2E
100
AcDbEntity
  8
0
  6
CONTINU
 62
     7
100
AcDbCircle
 10
692.728642222222
 20
-974.0876688888887
 30
0.0
 40
9.012275555555557
210
0.0
220
0.0
230
-1.0
100
AcDbArc
 50
314.9988440000046
 51
345.0048240000042
  0
ARC
  5
1D8C
330
1D2E
100
AcDbEntity
  8
0
  6
CONTINU
 62
     7
100
AcDbCircle
 10
694.3710155555553
 20
-967.9395244444448
 30
0.0
 40
9.017286666666663
210
0.0
220
0.0
230
-1.0
100
AcDbArc
 50
345.0055950000016
 51
14.99433400000549
  0
ARC
  5
1D8D
330
1D2E
100
AcDbEntity
  8
0
  6
CONTINU
 62
     7
100
AcDbCircle
 10
692.7257822222219
 20
-961.7938244444438
 30
0.0
 40
9.015771111111108
210
0.0
220
0.0
230
-1.0
100
AcDbArc
 50
15.00594700001081
 51
44.99903500000672
  0
ARC
  5
1D8E
330
1D2E
100
AcDbEntity
  8
0
  6
CONTINU
 62
     7
100
AcDbCircle
 10
688.2284444444442
 20
-957.2916222222218
 30
0.0
 40
9.01252
210
0.0
220
0.0
230
-1.0
100
AcDbArc
 50
45.00160599999082
 51
75.00503499999715
  0
ARC
  5
1D8F
330
1D2E
100
AcDbEntity
  8
0
  6
CONTINU
 62
     7
100
AcDbCircle
 10
682.0800799999997
 20
-955.6496155555558
 30
0.0
 40
9.018239999999998
210
0.0
220
0.0
230
-1.0
100
AcDbArc
 50
75.00715599999963
 51
104.9936289999962
  0
ARC
  5
1D90
330
1D2E
100
AcDbEntity
  8
0
  6
CONTINU
 62
     7
100
AcDbCircle
 10
675.9348688888886
 20
-957.2958266666667
 30
0.0
 40
9.017677777777779
210
0.0
220
0.0
230
-1.0
100
AcDbArc
 50
105.0065000000014
 51
134.994445999993
  0
ARC
  5
1D91
330
1D2E
100
AcDbEntity
  8
0
  6
CONTINU
 62
     7
100
AcDbCircle
 10
671.4355999999997
 20
-961.7941177777778
 30
0.0
 40
9.016773333333333
210
0.0
220
0.0
230
-1.0
100
AcDbArc
 50
135.0055079999933
 51
164.9950870000038
  0
ARC
  5
1D92
330
1D2E
100
AcDbEntity
  8
0
  6
CONTINU
 62
     7
100
AcDbCircle
 10
669.7855755555552
 20
-967.9398177777777
 30
0.0
 40
9.013595555555557
210
0.0
220
0.0
230
-1.0
100
AcDbArc
 50
164.9981990000059
 51
195.0005489999974
  0
ARC
  5
1D93
330
1D2E
100
AcDbEntity
  8
0
  6
CONTINU
 62
     7
100
AcDbCircle
 10
671.4355511111108
 20
-974.0858844444446
 30
0.0
 40
9.016431111111108
210
0.0
220
0.0
230
-1.0
100
AcDbArc
 50
195.0027469999978
 51
224.9928279999929
  0
ARC
  5
1D94
330
1D2E
100
AcDbEntity
  8
0
  6
CONTINU
 62
     7
100
AcDbCircle
 10
675.9346488888885
 20
-978.5850311111104
 30
0.0
 40
9.016113333333333
210
0.0
220
0.0
230
-1.0
100
AcDbArc
 50
225.0012660000078
 51
254.9947659999999
  0
ARC
  5
1D95
330
1D2E
100
AcDbEntity
  8
0
  6
CONTINU
 62
     7
100
AcDbCircle
 10
682.0802999999997
 20
-980.2365466666667
 30
0.0
 40
9.01132222222222
210
0.0
220
0.0
230
-1.0
100
AcDbArc
 50
254.9958269999984
 51
285.0035550000052
  0
CIRCLE
  5
1D96
330
1D2E
100
AcDbEntity
  8
0
  6
CONTINU
 62
     7
100
AcDbCircle
 10
763.9691888888885
 20
-934.9395733333338
 30
0.0
 40
4.27780222222222
210
0.0
220
0.0
230
-1.0
  0
CIRCLE
  5
1D97
330
1D2E
100
AcDbEntity
  8
0
  6
CONTINU
 62
     7
100
AcDbCircle
 10
-189.3642422222223
 20
-934.9395733333338
 30
0.0
 40
4.27780222222222
210
0.0
220
0.0
230
-1.0
  0
CIRCLE
  5
1D98
330
1D2E
100
AcDbEntity
  8
0
  6
CONTINU
 62
     7
100
AcDbCircle
 10
-189.3642422222223
 20
-1986.050586666666
 30
0.0
 40
4.27780222222222
210
0.0
220
0.0
230
-1.0
  0
CIRCLE
  5
1D99
330
1D2E
100
AcDbEntity
  8
0
  6
CONTINU
 62
     7
100
AcDbCircle
 10
763.9691888888885
 20
-1986.050586666666
 30
0.0
 40
4.27780222222222
210
0.0
220
0.0
230
-1.0
  0
LINE
  5
1D9A
330
1D2E
100
AcDbEntity
  8
0
  6
CONTINU
 62
     7
100
AcDbLine
 10
128.7494755555556
 20
-967.1542955555558
 30
0.0
 11
128.4765533333334
 21
-965.6073044444447
 31
0.0
  0
LINE
  5
1D9B
330
1D2E
100
AcDbEntity
  8
0
  6
CONTINU
 62
     7
100
AcDbLine
 10
-660.8065199999997
 20
-967.1542955555558
 30
0.0
 11
-661.0793199999996
 21
-965.6068399999998
 31
0.0
  0
LINE
  5
1D9C
330
1D2E
100
AcDbEntity
  8
0
  6
CONTINU
 62
     7
100
AcDbLine
 10
86.47451999999999
 20
-970.2706444444439
 30
0.0
 11
86.20167111111129
 21
-968.7252422222218
 31
0.0
  0
LINE
  5
1D9D
330
1D2E
100
AcDbEntity
  8
0
  6
CONTINU
 62
     7
100
AcDbLine
 10
-703.0812799999996
 20
-970.2716711111106
 30
0.0
 11
-703.3540311111107
 21
-968.7249733333338
 31
0.0
  0
LINE
  5
1D9E
330
1D2E
100
AcDbEntity
  8
0
  6
CONTINU
 62
     7
100
AcDbLine
 10
88.12173333333362
 20
-976.4200844444447
 30
0.0
 11
86.47432444444474
 21
-970.2736266666665
 31
0.0
  0
LINE
  5
1D9F
330
1D2E
100
AcDbEntity
  8
0
  6
CONTINU
 62
     7
100
AcDbLine
 10
128.4767733333333
 20
-965.6063755555548
 30
0.0
 11
126.8293644444446
 21
-959.4581577777779
 31
0.0
  0
LINE
  5
1DA0
330
1D2E
100
AcDbEntity
  8
0
  6
CONTINU
 62
     7
100
AcDbLine
 10
-701.4336755555554
 20
-976.4208177777778
 30
0.0
 11
-703.0808155555551
 21
-970.2728933333339
 31
0.0
  0
LINE
  5
1DA1
330
1D2E
100
AcDbEntity
  8
0
  6
CONTINU
 62
     7
100
AcDbLine
 10
-661.0792711111108
 20
-965.6071088888886
 30
0.0
 11
-662.7262155555553
 21
-959.4598199999998
 31
0.0
  0
LINE
  5
1DA2
330
1D2E
100
AcDbEntity
  8
0
  6
CONTINU
 62
     7
100
AcDbLine
 10
88.65914444444445
 20
-977.8956488888887
 30
0.0
 11
88.12188000000015
 21
-976.4191555555557
 31
0.0
  0
LINE
  5
1DA3
330
1D2E
100
AcDbEntity
  8
0
  6
CONTINU
 62
     7
100
AcDbLine
 10
-700.8966066666663
 20
-977.8956488888887
 30
0.0
 11
-701.4339199999997
 21
-976.4194244444437
 31
0.0
  0
LINE
  5
1DA4
330
1D2E
100
AcDbEntity
  8
0
  6
CONTINU
 62
     7
100
AcDbLine
 10
126.8294377777779
 20
-959.4598199999998
 30
0.0
 11
126.2919288888888
 21
-957.9833266666666
 31
0.0
  0
LINE
  5
1DA5
330
1D2E
100
AcDbEntity
  8
0
  6
CONTINU
 62
     7
100
AcDbLine
 10
-662.7262644444441
 20
-959.4598199999998
 30
0.0
 11
-663.2636511111108
 21
-957.9833266666666
 31
0.0
  0
LINE
  5
1DA6
330
1D2E
100
AcDbEntity
  8
0
  6
CONTINU
 62
     7
100
AcDbLine
 10
126.2919288888888
 20
-957.9836199999997
 30
0.0
 11
125.5065533333336
 21
-956.6223822222218
 31
0.0
  0
LINE
  5
1DA7
330
1D2E
100
AcDbEntity
  8
0
  6
CONTINU
 62
     7
100
AcDbLine
 10
-663.2637977777775
 20
-957.983791111112
 30
0.0
 11
-664.0493199999996
 21
-956.6229444444438
 31
0.0
  0
LINE
  5
1DA8
330
1D2E
100
AcDbEntity
  8
0
  6
CONTINU
 62
     7
100
AcDbLine
 10
89.44466666666688
 20
-979.2565933333326
 30
0.0
 11
88.65904666666677
 21
-977.8961133333325
 31
0.0
  0
LINE
  5
1DA9
330
1D2E
100
AcDbEntity
  8
0
  6
CONTINU
 62
     7
100
AcDbLine
 10
-700.1111333333329
 20
-979.2565933333326
 30
0.0
 11
-700.8966555555552
 21
-977.8961133333325
 31
0.0
  0
LINE
  5
1DAA
330
1D2E
100
AcDbEntity
  8
0
  6
CONTINU
 62
     7
100
AcDbLine
 10
125.5066022222226
 20
-956.6228466666666
 30
0.0
 11
124.4961666666669
 21
-955.4191044444447
 31
0.0
  0
LINE
  5
1DAB
330
1D2E
100
AcDbEntity
  8
0
  6
CONTINU
 62
     7
100
AcDbLine
 10
-664.0493688888885
 20
-956.6228466666666
 30
0.0
 11
-665.0595844444442
 21
-955.4189088888886
 31
0.0
  0
LINE
  5
1DAC
330
1D2E
100
AcDbEntity
  8
0
  6
CONTINU
 62
     7
100
AcDbLine
 10
90.4545400000004
 20
-980.4604333333339
 30
0.0
 11
89.44456888888907
 21
-979.2565933333326
 31
0.0
  0
LINE
  5
1DAD
330
1D2E
100
AcDbEntity
  8
0
  6
CONTINU
 62
     7
100
AcDbLine
 10
-699.1009911111108
 20
-980.4604333333339
 30
0.0
 11
-700.1110844444442
 21
-979.2567888888886
 31
0.0
  0
LINE
  5
1DAE
330
1D2E
100
AcDbEntity
  8
0
  6
CONTINU
 62
     7
100
AcDbLine
 10
94.95468888888888
 20
-984.9605822222226
 30
0.0
 11
90.45483333333356
 21
-980.4594066666666
 31
0.0
  0
LINE
  5
1DAF
330
1D2E
100
AcDbEntity
  8
0
  6
CONTINU
 62
     7
100
AcDbLine
 10
124.4964844444446
 20
-955.4176133333326
 30
0.0
 11
119.9965555555558
 21
-950.9188577777779
 31
0.0
  0
LINE
  5
1DB0
330
1D2E
100
AcDbEntity
  8
0
  6
CONTINU
 62
     7
100
AcDbLine
 10
-694.6007688888886
 20
-984.9619022222219
 30
0.0
 11
-699.1015288888887
 21
-980.4600666666667
 31
0.0
  0
LINE
  5
1DB1
330
1D2E
100
AcDbEntity
  8
0
  6
CONTINU
 62
     7
100
AcDbLine
 10
-665.0592422222218
 20
-955.4195688888887
 30
0.0
 11
-669.5590244444442
 21
-950.9183933333337
 31
0.0
  0
LINE
  5
1DB2
330
1D2E
100
AcDbEntity
  8
0
  6
CONTINU
 62
     7
100
AcDbLine
 10
96.15818666666678
 20
-985.970455555555
 30
0.0
 11
94.95454222222235
 21
-984.9602155555558
 31
0.0
  0
LINE
  5
1DB3
330
1D2E
100
AcDbEntity
  8
0
  6
CONTINU
 62
     7
100
AcDbLine
 10
-693.3974666666663
 20
-985.970455555555
 30
0.0
 11
-694.6011599999998
 21
-984.9602155555558
 31
0.0
  0
LINE
  5
1DB4
330
1D2E
100
AcDbEntity
  8
0
  6
CONTINU
 62
     7
100
AcDbLine
 10
119.9965066666668
 20
-950.9190533333326
 30
0.0
 11
118.7929844444446
 21
-949.9092533333325
 31
0.0
  0
LINE
  5
1DB5
330
1D2E
100
AcDbEntity
  8
0
  6
CONTINU
 62
     7
100
AcDbLine
 10
-669.5592199999996
 20
-950.9191266666666
 30
0.0
 11
-670.7627666666663
 21
-949.9089844444448
 31
0.0
  0
LINE
  5
1DB6
330
1D2E
100
AcDbEntity
  8
0
  6
CONTINU
 62
     7
100
AcDbLine
 10
107.4750844444446
 20
-977.1837777777777
 30
0.0
 11
99.46972444444476
 21
-972.5615777777777
 31
0.0
  0
LINE
  5
1DB7
330
1D2E
100
AcDbEntity
  8
0
  6
CONTINU
 62
     7
100
AcDbLine
 10
-682.0802022222219
 20
-977.1840711111106
 30
0.0
 11
-690.0859777777776
 21
-972.5616511111118
 31
0.0
  0
LINE
  5
1DB8
330
1D2E
100
AcDbEntity
  8
0
  6
CONTINU
 62
     7
100
AcDbLine
 10
115.4806155555555
 20
-963.3183511111106
 30
0.0
 11
107.475157777778
 21
-958.6955644444447
 31
0.0
  0
LINE
  5
1DB9
330
1D2E
100
AcDbEntity
  8
0
  6
CONTINU
 62
     7
100
AcDbLine
 10
-674.0748911111108
 20
-963.3176911111107
 30
0.0
 11
-682.0804955555551
 21
-958.6957599999998
 31
0.0
  0
LINE
  5
1DBA
330
1D2E
100
AcDbEntity
  8
0
  6
CONTINU
 62
     7
100
AcDbLine
 10
97.51869111111114
 20
-986.7558066666667
 30
0.0
 11
96.15833333333364
 21
-985.970455555555
 31
0.0
  0
LINE
  5
1DBB
330
1D2E
100
AcDbEntity
  8
0
  6
CONTINU
 62
     7
100
AcDbLine
 10
118.7928377777779
 20
-949.9085933333338
 30
0.0
 11
117.4321622222221
 21
-949.1228022222216
 31
0.0
  0
LINE
  5
1DBC
330
1D2E
100
AcDbEntity
  8
0
  6
CONTINU
 62
     7
100
AcDbLine
 10
-692.0369133333331
 20
-986.7557088888887
 30
0.0
 11
-693.3974177777774
 21
-985.9702844444445
 31
0.0
  0
LINE
  5
1DBD
330
1D2E
100
AcDbEntity
  8
0
  6
CONTINU
 62
     7
100
AcDbLine
 10
-670.7628644444441
 20
-949.9085933333338
 30
0.0
 11
-672.1235888888887
 21
-949.1230711111107
 31
0.0
  0
LINE
  5
1DBE
330
1D2E
100
AcDbEntity
  8
0
  6
CONTINU
 62
     7
100
AcDbLine
 10
98.99528222222228
 20
-987.2930955555558
 30
0.0
 11
97.51886222222243
 21
-986.7558066666667
 31
0.0
  0
LINE
  5
1DBF
330
1D2E
100
AcDbEntity
  8
0
  6
CONTINU
 62
     7
100
AcDbLine
 10
117.4322355555556
 20
-949.1235599999997
 30
0.0
 11
115.9555711111112
 21
-948.5861488888886
 31
0.0
  0
LINE
  5
1DC0
330
1D2E
100
AcDbEntity
  8
0
  6
CONTINU
 62
     7
100
AcDbLine
 10
-690.5602977777775
 20
-987.2933644444447
 30
0.0
 11
-692.0364977777774
 21
-986.7557088888887
 31
0.0
  0
LINE
  5
1DC1
330
1D2E
100
AcDbEntity
  8
0
  6
CONTINU
 62
     7
100
AcDbLine
 10
-672.1236866666664
 20
-949.1235599999997
 30
0.0
 11
-673.5999844444441
 21
-948.5856844444446
 31
0.0
  0
LINE
  5
1DC2
330
1D2E
100
AcDbEntity
  8
0
  6
CONTINU
 62
     7
100
AcDbLine
 10
105.1423266666668
 20
-988.9415311111106
 30
0.0
 11
98.99479333333353
 21
-987.2933644444447
 31
0.0
  0
LINE
  5
1DC3
330
1D2E
100
AcDbEntity
  8
0
  6
CONTINU
 62
     7
100
AcDbLine
 10
115.9557422222225
 20
-948.5861488888886
 30
0.0
 11
109.8080866666669
 21
-946.9406955555557
 31
0.0
  0
LINE
  5
1DC4
330
1D2E
100
AcDbEntity
  8
0
  6
CONTINU
 62
     7
100
AcDbLine
 10
-684.4130822222219
 20
-988.9422888888887
 30
0.0
 11
-690.5599555555552
 21
-987.2941222222218
 31
0.0
  0
LINE
  5
1DC5
330
1D2E
100
AcDbEntity
  8
0
  6
CONTINU
 62
     7
100
AcDbLine
 10
-673.599813333333
 20
-948.5867111111106
 30
0.0
 11
-679.7468088888885
 21
-946.9385688888888
 31
0.0
  0
LINE
  5
1DC6
330
1D2E
100
AcDbEntity
  8
0
  6
CONTINU
 62
     7
100
AcDbLine
 10
106.6897822222226
 20
-989.2130844444448
 30
0.0
 11
105.1424244444447
 21
-988.9400399999997
 31
0.0
  0
LINE
  5
1DC7
330
1D2E
100
AcDbEntity
  8
0
  6
CONTINU
 62
     7
100
AcDbLine
 10
-682.8659199999997
 20
-989.2127911111106
 30
0.0
 11
-684.4132288888886
 21
-988.9400399999997
 31
0.0
  0
LINE
  5
1DC8
330
1D2E
100
AcDbEntity
  8
0
  6
CONTINU
 62
     7
100
AcDbLine
 10
109.8088200000001
 20
-946.9378111111106
 30
0.0
 11
108.2613400000003
 21
-946.6661844444447
 31
0.0
  0
LINE
  5
1DC9
330
1D2E
100
AcDbEntity
  8
0
  6
CONTINU
 62
     7
100
AcDbLine
 10
-679.7467599999996
 20
-946.9388377777777
 30
0.0
 11
-681.294313333333
 21
-946.6661844444447
 31
0.0
  0
LINE
  5
1DCA
330
1D2E
100
AcDbEntity
  8
0
  6
CONTINU
 62
     7
100
AcDbLine
 10
109.8081111111113
 20
-988.9404066666665
 30
0.0
 11
108.2609000000003
 21
-989.2130844444448
 31
0.0
  0
LINE
  5
1DCB
330
1D2E
100
AcDbEntity
  8
0
  6
CONTINU
 62
     7
100
AcDbLine
 10
-679.747664444444
 20
-988.9405044444448
 30
0.0
 11
-681.2948266666664
 21
-989.2134511111105
 31
0.0
  0
LINE
  5
1DCC
330
1D2E
100
AcDbEntity
  8
0
  6
CONTINU
 62
     7
100
AcDbLine
 10
106.690051111111
 20
-946.6654266666667
 30
0.0
 11
105.142717777778
 21
-946.9384711111105
 31
0.0
  0
LINE
  5
1DCD
330
1D2E
100
AcDbEntity
  8
0
  6
CONTINU
 62
     7
100
AcDbLine
 10
-682.8655533333329
 20
-946.6654266666667
 30
0.0
 11
-684.4130088888886
 21
-946.9382755555558
 31
0.0
  0
LINE
  5
1DCE
330
1D2E
100
AcDbEntity
  8
0
  6
CONTINU
 62
     7
100
AcDbLine
 10
115.9543000000002
 20
-987.2947822222227
 30
0.0
 11
109.808551111111
 21
-988.9411644444447
 31
0.0
  0
LINE
  5
1DCF
330
1D2E
100
AcDbEntity
  8
0
  6
CONTINU
 62
     7
100
AcDbLine
 10
105.1426444444446
 20
-946.939204444444
 30
0.0
 11
98.99462222222247
 21
-948.5873711111105
 31
0.0
  0
LINE
  5
1DD0
330
1D2E
100
AcDbEntity
  8
0
  6
CONTINU
 62
     7
100
AcDbLine
 10
-673.6005955555553
 20
-987.2941222222218
 30
0.0
 11
-679.7472244444441
 21
-988.9419955555558
 31
0.0
  0
LINE
  5
1DD1
330
1D2E
100
AcDbEntity
  8
0
  6
CONTINU
 62
     7
100
AcDbLine
 10
-684.4130333333331
 20
-946.9380799999999
 30
0.0
 11
-690.5601511111107
 21
-948.5856111111106
 31
0.0
  0
LINE
  5
1DD2
330
1D2E
100
AcDbEntity
  8
0
  6
CONTINU
 62
     7
100
AcDbLine
 10
117.4317955555556
 20
-986.7559777777778
 30
0.0
 11
115.9555711111112
 21
-987.2932911111117
 31
0.0
  0
LINE
  5
1DD3
330
1D2E
100
AcDbEntity
  8
0
  6
CONTINU
 62
     7
100
AcDbLine
 10
-672.1239555555552
 20
-986.7561733333324
 30
0.0
 11
-673.6003999999996
 21
-987.2936577777776
 31
0.0
  0
LINE
  5
1DD4
330
1D2E
100
AcDbEntity
  8
0
  6
CONTINU
 62
     7
100
AcDbLine
 10
98.99562444444462
 20
-948.5856111111106
 30
0.0
 11
97.51915555555569
 21
-949.1228022222216
 31
0.0
  0
LINE
  5
1DD5
330
1D2E
100
AcDbEntity
  8
0
  6
CONTINU
 62
     7
100
AcDbLine
 10
-690.5601511111107
 20
-948.5856111111106
 30
0.0
 11
-692.0365955555553
 21
-949.1230711111107
 31
0.0
  0
LINE
  5
1DD6
330
1D2E
100
AcDbEntity
  8
0
  6
CONTINU
 62
     7
100
AcDbLine
 10
115.4808844444446
 20
-972.5611866666666
 30
0.0
 11
107.4753044444446
 21
-977.1833133333325
 31
0.0
  0
LINE
  5
1DD7
330
1D2E
100
AcDbEntity
  8
0
  6
CONTINU
 62
     7
100
AcDbLine
 10
-674.0745244444441
 20
-972.5613822222216
 30
0.0
 11
-682.0802511111109
 21
-977.1832155555557
 31
0.0
  0
LINE
  5
1DD8
330
1D2E
100
AcDbEntity
  8
0
  6
CONTINU
 62
     7
100
AcDbLine
 10
97.51900888888918
 20
-949.1230711111107
 30
0.0
 11
96.1583822222226
 21
-949.9083244444445
 31
0.0
  0
LINE
  5
1DD9
330
1D2E
100
AcDbEntity
  8
0
  6
CONTINU
 62
     7
100
AcDbLine
 10
118.7927399999999
 20
-985.9701866666666
 30
0.0
 11
117.4319666666669
 21
-986.7559777777778
 31
0.0
  0
LINE
  5
1DDA
330
1D2E
100
AcDbEntity
  8
0
  6
CONTINU
 62
     7
100
AcDbLine
 10
-692.0364488888886
 20
-949.1228022222216
 30
0.0
 11
-693.3971733333329
 21
-949.9082266666666
 31
0.0
  0
LINE
  5
1DDB
330
1D2E
100
AcDbEntity
  8
0
  6
CONTINU
 62
     7
100
AcDbLine
 10
-670.7633288888886
 20
-985.9701866666666
 30
0.0
 11
-672.1237355555553
 21
-986.7559777777778
 31
0.0
  0
LINE
  5
1DDC
330
1D2E
100
AcDbEntity
  8
0
  6
CONTINU
 62
     7
100
AcDbLine
 10
107.4754511111111
 20
-958.6954666666668
 30
0.0
 11
99.4699933333336
 21
-963.3171288888886
 31
0.0
  0
LINE
  5
1DDD
330
1D2E
100
AcDbEntity
  8
0
  6
CONTINU
 62
     7
100
AcDbLine
 10
-682.0804955555551
 20
-958.6948311111108
 30
0.0
 11
-690.0859288888887
 21
-963.3171288888886
 31
0.0
  0
LINE
  5
1DDE
330
1D2E
100
AcDbEntity
  8
0
  6
CONTINU
 62
     7
100
AcDbLine
 10
96.1583822222226
 20
-949.9085933333338
 30
0.0
 11
94.95476222222249
 21
-950.9185644444437
 31
0.0
  0
LINE
  5
1DDF
330
1D2E
100
AcDbEntity
  8
0
  6
CONTINU
 62
     7
100
AcDbLine
 10
-693.3970755555552
 20
-949.9085933333338
 30
0.0
 11
-694.6008177777776
 21
-950.9185644444437
 31
0.0
  0
LINE
  5
1DE0
330
1D2E
100
AcDbEntity
  8
0
  6
CONTINU
 62
     7
100
AcDbLine
 10
119.9961888888889
 20
-984.9606800000008
 30
0.0
 11
118.7924955555555
 21
-985.9707488888886
 31
0.0
  0
LINE
  5
1DE1
330
1D2E
100
AcDbEntity
  8
0
  6
CONTINU
 62
     7
100
AcDbLine
 10
-669.5595866666662
 20
-984.9605822222226
 30
0.0
 11
-670.7632311111109
 21
-985.9706511111106
 31
0.0
  0
LINE
  5
1DE2
330
1D2E
100
AcDbEntity
  8
0
  6
CONTINU
 62
     7
100
AcDbLine
 10
94.95439555555561
 20
-950.9179288888885
 30
0.0
 11
90.45483333333356
 21
-955.4195688888887
 31
0.0
  0
LINE
  5
1DE3
330
1D2E
100
AcDbEntity
  8
0
  6
CONTINU
 62
     7
100
AcDbLine
 10
124.4961666666669
 20
-980.4606288888887
 30
0.0
 11
119.9959444444447
 21
-984.9616088888886
 31
0.0
  0
LINE
  5
1DE4
330
1D2E
100
AcDbEntity
  8
0
  6
CONTINU
 62
     7
100
AcDbLine
 10
-694.6005977777774
 20
-950.9181000000008
 30
0.0
 11
-699.100893333333
 21
-955.4199355555549
 31
0.0
  0
LINE
  5
1DE5
330
1D2E
100
AcDbEntity
  8
0
  6
CONTINU
 62
     7
100
AcDbLine
 10
-665.0586799999999
 20
-980.4607999999998
 30
0.0
 11
-669.5594155555552
 21
-984.9605822222226
 31
0.0
  0
LINE
  5
1DE6
330
1D2E
100
AcDbEntity
  8
0
  6
CONTINU
 62
     7
100
AcDbLine
 10
90.45488222222251
 20
-955.4189088888886
 30
0.0
 11
89.44488666666689
 21
-956.6221866666667
 31
0.0
  0
LINE
  5
1DE7
330
1D2E
100
AcDbEntity
  8
0
  6
CONTINU
 62
     7
100
AcDbLine
 10
125.5061133333335
 20
-979.2573511111106
 30
0.0
 11
124.4959955555557
 21
-980.4607999999998
 31
0.0
  0
LINE
  5
1DE8
330
1D2E
100
AcDbEntity
  8
0
  6
CONTINU
 62
     7
100
AcDbLine
 10
-699.100893333333
 20
-955.4189088888886
 30
0.0
 11
-700.110913333333
 21
-956.6224799999998
 31
0.0
  0
LINE
  5
1DE9
330
1D2E
100
AcDbEntity
  8
0
  6
CONTINU
 62
     7
100
AcDbLine
 10
-664.0495644444442
 20
-979.2571555555557
 30
0.0
 11
-665.0594866666663
 21
-980.4604333333339
 31
0.0
  0
LINE
  5
1DEA
330
1D2E
100
AcDbEntity
  8
0
  6
CONTINU
 62
     7
100
AcDbLine
 10
89.44481333333351
 20
-956.6221866666667
 30
0.0
 11
88.6589488888892
 21
-957.9827644444447
 31
0.0
  0
LINE
  5
1DEB
330
1D2E
100
AcDbEntity
  8
0
  6
CONTINU
 62
     7
100
AcDbLine
 10
-700.1109622222218
 20
-956.6220888888885
 30
0.0
 11
-700.8968511111107
 21
-957.9827644444447
 31
0.0
  0
LINE
  5
1DEC
330
1D2E
100
AcDbEntity
  8
0
  6
CONTINU
 62
     7
100
AcDbLine
 10
126.2916600000002
 20
-977.8961133333325
 30
0.0
 11
125.5062111111113
 21
-979.2565933333326
 31
0.0
  0
LINE
  5
1DED
330
1D2E
100
AcDbEntity
  8
0
  6
CONTINU
 62
     7
100
AcDbLine
 10
-663.264164444444
 20
-977.8961133333325
 30
0.0
 11
-664.049662222222
 21
-979.2567888888886
 31
0.0
  0
LINE
  5
1DEE
330
1D2E
100
AcDbEntity
  8
0
  6
CONTINU
 62
     7
100
AcDbLine
 10
88.65904666666677
 20
-957.9830577777777
 30
0.0
 11
88.12168444444456
 21
-959.4594533333326
 31
0.0
  0
LINE
  5
1DEF
330
1D2E
100
AcDbEntity
  8
0
  6
CONTINU
 62
     7
100
AcDbLine
 10
126.8291444444446
 20
-976.4201822222217
 30
0.0
 11
126.2916600000002
 21
-977.8961133333325
 31
0.0
  0
LINE
  5
1DF0
330
1D2E
100
AcDbEntity
  8
0
  6
CONTINU
 62
     7
100
AcDbLine
 10
-700.8965577777773
 20
-957.9825933333326
 30
0.0
 11
-701.4339933333331
 21
-959.4591844444446
 31
0.0
  0
LINE
  5
1DF1
330
1D2E
100
AcDbEntity
  8
0
  6
CONTINU
 62
     7
100
AcDbLine
 10
-662.7264111111108
 20
-976.4198888888886
 30
0.0
 11
-663.2638466666665
 21
-977.8962111111107
 31
0.0
  0
LINE
  5
1DF2
330
1D2E
100
AcDbEntity
  8
0
  6
CONTINU
 62
     7
100
AcDbLine
 10
88.12210000000005
 20
-959.4602111111106
 30
0.0
 11
86.47439777777789
 21
-965.6080622222228
 31
0.0
  0
LINE
  5
1DF3
330
1D2E
100
AcDbEntity
  8
0
  6
CONTINU
 62
     7
100
AcDbLine
 10
128.4757955555558
 20
-970.2741888888885
 30
0.0
 11
126.8292666666668
 21
-976.4203533333338
 31
0.0
  0
LINE
  5
1DF4
330
1D2E
100
AcDbEntity
  8
0
  6
CONTINU
 62
     7
100
AcDbLine
 10
-701.4341888888885
 20
-959.4590866666667
 30
0.0
 11
-703.0809133333331
 21
-965.6075733333326
 31
0.0
  0
LINE
  5
1DF5
330
1D2E
100
AcDbEntity
  8
0
  6
CONTINU
 62
     7
100
AcDbLine
 10
-661.0793199999996
 20
-970.2714022222217
 30
0.0
 11
-662.7266066666663
 21
-976.4200844444447
 31
0.0
  0
LINE
  5
1DF6
330
1D2E
100
AcDbEntity
  8
0
  6
CONTINU
 62
     7
100
AcDbLine
 10
128.7492800000002
 20
-968.7242155555559
 30
0.0
 11
128.4764066666669
 21
-970.2719399999999
 31
0.0
  0
LINE
  5
1DF7
330
1D2E
100
AcDbEntity
  8
0
  6
CONTINU
 62
     7
100
AcDbLine
 10
-660.8064711111108
 20
-968.7249733333338
 30
0.0
 11
-661.0797355555554
 21
-970.2717688888885
 31
0.0
  0
LINE
  5
1DF8
330
1D2E
100
AcDbEntity
  8
0
  6
CONTINU
 62
     7
100
AcDbLine
 10
86.47454444444463
 20
-965.6067422222227
 30
0.0
 11
86.20167111111129
 21
-967.1542955555558
 31
0.0
  0
LINE
  5
1DF9
330
1D2E
100
AcDbEntity
  8
0
  6
CONTINU
 62
     7
100
AcDbLine
 10
-703.0810355555553
 20
-965.6067422222227
 30
0.0
 11
-703.353933333333
 21
-967.1542955555558
 31
0.0
  0
LINE
  5
1DFA
330
1D2E
100
AcDbEntity
  8
0
  6
CONTINU
 62
     7
100
AcDbLine
 10
-837.3024488888885
 20
-1998.578364444443
 30
0.0
 11
-837.3024488888885
 21
-922.4117711111107
 31
0.0
  0
LINE
  5
1DFB
330
1D2E
100
AcDbEntity
  8
0
  6
CONTINU
 62
     7
100
AcDbLine
 10
-703.3540311111107
 20
-968.7249733333338
 30
0.0
 11
-703.353933333333
 21
-967.1539288888887
 31
0.0
  0
LINE
  5
1DFC
330
1D2E
100
AcDbEntity
  8
0
  6
CONTINU
 62
     7
100
AcDbLine
 10
-690.0859777777776
 20
-972.5613822222216
 30
0.0
 11
-690.0857577777774
 21
-963.3174222222226
 31
0.0
  0
LINE
  5
1DFD
330
1D2E
100
AcDbEntity
  8
0
  6
CONTINU
 62
     7
100
AcDbLine
 10
-674.0746711111109
 20
-972.5615777777777
 30
0.0
 11
-674.074842222222
 21
-963.3174222222226
 31
0.0
  0
LINE
  5
1DFE
330
1D2E
100
AcDbEntity
  8
0
  6
CONTINU
 62
     7
100
AcDbLine
 10
-660.8065199999997
 20
-968.7255355555558
 30
0.0
 11
-660.8064466666664
 21
-967.1542955555558
 31
0.0
  0
LINE
  5
1DFF
330
1D2E
100
AcDbEntity
  8
0
  6
CONTINU
 62
     7
100
AcDbLine
 10
86.20172000000014
 20
-968.7249733333338
 30
0.0
 11
86.20179333333362
 21
-967.1539288888887
 31
0.0
  0
LINE
  5
1E00
330
1D2E
100
AcDbEntity
  8
0
  6
CONTINU
 62
     7
100
AcDbLine
 10
99.46972444444476
 20
-972.5613822222216
 30
0.0
 11
99.46994444444465
 21
-963.3174222222226
 31
0.0
  0
LINE
  5
1E01
330
1D2E
100
AcDbEntity
  8
0
  6
CONTINU
 62
     7
100
AcDbLine
 10
115.4810311111113
 20
-972.5615777777777
 30
0.0
 11
115.4808844444446
 21
-963.3174222222226
 31
0.0
  0
LINE
  5
1E02
330
1D2E
100
AcDbEntity
  8
0
  6
CONTINU
 62
     7
100
AcDbLine
 10
128.7492066666667
 20
-968.7255355555558
 30
0.0
 11
128.7492800000002
 21
-967.1542955555558
 31
0.0
  0
LINE
  5
1E03
330
1D2E
100
AcDbEntity
  8
0
  6
CONTINU
 62
     7
100
AcDbLine
 10
262.6978444444447
 20
-1998.272808888888
 30
0.0
 11
262.697648888889
 21
-922.7173511111107
 31
0.0
  0
LINE
  5
1E04
330
1D2E
100
AcDbEntity
  8
0
  6
CONTINU
 62
     7
100
AcDbLine
 10
259.031006666667
 20
-919.0506355555557
 30
0.0
 11
-833.941313333333
 21
-919.0506355555557
 31
0.0
  0
LINE
  5
1E05
330
1D2E
100
AcDbEntity
  8
0
  6
CONTINU
 62
     7
100
AcDbLine
 10
108.2613888888891
 20
-946.6658177777778
 30
0.0
 11
106.690197777778
 21
-946.6655244444437
 31
0.0
  0
LINE
  5
1E06
330
1D2E
100
AcDbEntity
  8
0
  6
CONTINU
 62
     7
100
AcDbLine
 10
-681.294313333333
 20
-946.6658177777778
 30
0.0
 11
-682.8655533333329
 21
-946.6655244444437
 31
0.0
  0
LINE
  5
1E07
330
1D2E
100
AcDbEntity
  8
0
  6
CONTINU
 62
     7
100
AcDbLine
 10
108.2608511111111
 20
-989.2132555555559
 30
0.0
 11
106.6897577777779
 21
-989.2132555555559
 31
0.0
  0
LINE
  5
1E08
330
1D2E
100
AcDbEntity
  8
0
  6
CONTINU
 62
     7
100
AcDbLine
 10
-681.2948755555552
 20
-989.2132555555559
 30
0.0
 11
-682.8659688888887
 21
-989.2132555555559
 31
0.0
  0
LINE
  5
1E09
330
1D2E
100
AcDbEntity
  8
0
  6
CONTINU
 62
     7
100
AcDbLine
 10
259.0311533333336
 20
-2001.939475555555
 30
0.0
 11
-833.941313333333
 21
-2001.939475555555
 31
0.0
  0
LINE
  5
1E0A
330
1D2E
100
AcDbEntity
  8
0
  6
AXES
 62
     7
100
AcDbLine
 10
-681.9905888888887
 20
-936.0380333333338
 30
0.0
 11
-681.9905888888887
 21
-999.7375177777778
 31
0.0
  0
LINE
  5
1E0B
330
1D2E
100
AcDbEntity
  8
0
  6
AXES
 62
     7
100
AcDbLine
 10
-713.8403066666663
 20
-967.8877755555559
 30
0.0
 11
-650.1408955555553
 21
-967.8877755555559
 31
0.0
  0
LINE
  5
1E0C
330
1D2E
100
AcDbEntity
  8
0
  6
AXES
 62
     7
100
AcDbLine
 10
107.4755
 20
-936.0071600000008
 30
0.0
 11
107.4755
 21
-999.8718888888886
 31
0.0
  0
LINE
  5
1E0D
330
1D2E
100
AcDbEntity
  8
0
  6
AXES
 62
     7
100
AcDbLine
 10
139.4078644444446
 20
-967.9395244444448
 30
0.0
 11
75.54311111111122
 21
-967.9395244444448
 31
0.0
  0
ARC
  5
1E0E
330
1D2E
100
AcDbEntity
  8
0
  6
CONTINU
 62
     7
100
AcDbCircle
 10
-259.0309822222223
 20
-922.7173511111107
 30
0.0
 40
3.666666666666666
210
0.0
220
0.0
230
-1.0
100
AcDbArc
 50
90.0
 51
180.0000610000009
  0
ARC
  5
1E0F
330
1D2E
100
AcDbEntity
  8
0
  6
CONTINU
 62
     7
100
AcDbCircle
 10
-259.0311533333336
 20
-1998.272808888888
 30
0.0
 40
3.666666666666666
210
0.0
220
0.0
230
-1.0
100
AcDbArc
 50
179.9997409999948
 51
270.0
  0
ARC
  5
1E10
330
1D2E
100
AcDbEntity
  8
0
  6
CONTINU
 62
     7
100
AcDbCircle
 10
-174.5494177777779
 20
-2595.790682222222
 30
0.0
 40
3.666666666666666
210
0.0
220
0.0
230
-1.0
100
AcDbArc
 50
190.0007929999948
 51
270.0
  0
ARC
  5
1E11
330
1D2E
100
AcDbEntity
  8
0
  6
CONTINU
 62
     7
100
AcDbCircle
 10
749.1578599999996
 20
-2595.790682222222
 30
0.0
 40
3.666666666666666
210
0.0
220
0.0
230
-1.0
100
AcDbArc
 50
270.0
 51
349.9991209999921
  0
ENDBLK
  5
1E13
330
1D2E
100
AcDbEntity
  8
0
100
AcDbBlockEnd
  0
BLOCK
  5
2401
330
2400
100
AcDbEntity
  8
0
100
AcDbBlockBegin
  2
*D27
 70
     1
 10
0.0
 20
0.0
 30
0.0
  3
*D27
  1

  0
LINE
  5
2433
330
2400
100
AcDbEntity
  8
0
  6
Continuous
 62
     0
370
    -2
100
AcDbLine
 10
-2066.199911507661
 20
217.946946314003
 30
0.0
 11
-2678.843634263849
 21
217.9469463140032
 31
0.0
  0
LINE
  5
2434
330
2400
100
AcDbEntity
  8
0
  6
Continuous
 62
     0
370
    -2
100
AcDbLine
 10
-2261.699926766451
 20
-429.053084203575
 30
0.0
 11
-2678.843634263849
 21
-429.0530842035749
 31
0.0
  0
LINE
  5
2435
330
2400
100
AcDbEntity
  8
0
  6
Continuous
 62
     0
370
    -2
100
AcDbLine
 10
-2658.843634263849
 20
167.9469463140032
 30
0.0
 11
-2658.843634263849
 21
-75.02441955870131
 31
0.0
  0
LINE
  5
2436
330
2400
100
AcDbEntity
  8
0
  6
Continuous
 62
     0
370
    -2
100
AcDbLine
 10
-2658.843634263849
 20
-379.053084203575
 30
0.0
 11
-2658.843634263849
 21
-136.0817183308705
 31
0.0
  0
SOLID
  5
2437
330
2400
100
AcDbEntity
  8
0
  6
Continuous
 62
     0
100
AcDbTrace
 10
-2667.176967597182
 20
167.9469463140032
 30
0.0
 11
-2650.510300930515
 21
167.9469463140032
 31
0.0
 12
-2658.843634263849
 22
217.9469463140032
 32
0.0
 13
-2658.843634263849
 23
217.9469463140032
 33
0.0
  0
SOLID
  5
2438
330
2400
100
AcDbEntity
  8
0
  6
Continuous
 62
     0
100
AcDbTrace
 10
-2667.176967597182
 20
-379.053084203575
 30
0.0
 11
-2650.510300930515
 21
-379.053084203575
 31
0.0
 12
-2658.843634263849
 22
-429.0530842035749
 32
0.0
 13
-2658.843634263849
 23
-429.0530842035749
 33
0.0
  0
MTEXT
  5
2439
330
2400
100
AcDbEntity
  8
0
  6
Continuous
 62
     0
100
AcDbMText
 10
-2658.843634263849
 20
-105.5530689447863
 30
0.0
 40
50.0
 41
0.0
 71
     5
 72
     1
  1
\A1;647
 73
     1
 44
1.0
1001
ACAD
1000
MTEXTBEGIN
1070
    73
1070
     1
1070
    44
1040
1.0
1070
    74
1070
     0
1000
MTEXTEND
  0
POINT
  5
243A
330
2400
100
AcDbEntity
  8
Defpoints
  6
Continuous
 62
     0
100
AcDbPoint
 10
-2066.199911507661
 20
217.946946314003
 30
0.0
  0
POINT
  5
243B
330
2400
100
AcDbEntity
  8
Defpoints
  6
Continuous
 62
     0
100
AcDbPoint
 10
-2261.699926766451
 20
-429.053084203575
 30
0.0
  0
POINT
  5
243C
330
2400
100
AcDbEntity
  8
Defpoints
  6
Continuous
 62
     0
100
AcDbPoint
 10
-2658.843634263849
 20
-429.0530842035749
 30
0.0
  0
ENDBLK
  5
2402
330
2400
100
AcDbEntity
  8
0
100
AcDbBlockEnd
  0
BLOCK
  5
2419
330
2418
100
AcDbEntity
  8
0
100
AcDbBlockBegin
  2
*D28
 70
     1
 10
0.0
 20
0.0
 30
0.0
  3
*D28
  1

  0
LINE
  5
241B
330
2418
100
AcDbEntity
  8
0
  6
Continuous
 62
     0
370
    -2
100
AcDbLine
 10
-2291.199911507662
 20
-124.053084203575
 30
0.0
 11
-2402.543516101425
 21
-124.053084203575
 31
0.0
  0
LINE
  5
241C
330
2418
100
AcDbEntity
  8
0
  6
Continuous
 62
     0
370
    -2
100
AcDbLine
 10
-2256.199911507661
 20
-16.05308420357504
 30
0.0
 11
-2402.543516101425
 21
-16.053084203575
 31
0.0
  0
LINE
  5
241D
330
2418
100
AcDbEntity
  8
0
  6
Continuous
 62
     0
370
    -2
100
AcDbLine
 10
-2382.543516101425
 20
-174.053084203575
 30
0.0
 11
-2382.543516101425
 21
-224.053084203575
 31
0.0
  0
LINE
  5
241E
330
2418
100
AcDbEntity
  8
0
  6
Continuous
 62
     0
370
    -2
100
AcDbLine
 10
-2382.543516101425
 20
33.94691579642499
 30
0.0
 11
-2382.543516101425
 21
83.94691579642499
 31
0.0
  0
SOLID
  5
241F
330
2418
100
AcDbEntity
  8
0
  6
Continuous
 62
     0
100
AcDbTrace
 10
-2390.876849434758
 20
-174.053084203575
 30
0.0
 11
-2374.210182768091
 21
-174.053084203575
 31
0.0
 12
-2382.543516101425
 22
-124.053084203575
 32
0.0
 13
-2382.543516101425
 23
-124.053084203575
 33
0.0
  0
SOLID
  5
2420
330
2418
100
AcDbEntity
  8
0
  6
Continuous
 62
     0
100
AcDbTrace
 10
-2390.876849434758
 20
33.946915796425
 30
0.0
 11
-2374.210182768091
 21
33.94691579642499
 31
0.0
 12
-2382.543516101425
 22
-16.053084203575
 32
0.0
 13
-2382.543516101425
 23
-16.053084203575
 33
0.0
  0
MTEXT
  5
2421
330
2418
100
AcDbEntity
  8
0
  6
Continuous
 62
     0
100
AcDbMText
 10
-2382.543516101425
 20
-70.05308420357541
 30
0.0
 40
50.0
 41
0.0
 71
     5
 72
     1
  1
\A1;108
 73
     1
 44
1.0
1001
ACAD
1000
MTEXTBEGIN
1070
    73
1070
     1
1070
    44
1040
1.0
1070
    74
1070
     0
1000
MTEXTEND
  0
POINT
  5
2422
330
2418
100
AcDbEntity
  8
Defpoints
  6
Continuous
 62
     0
100
AcDbPoint
 10
-2291.199911507662
 20
-124.053084203575
 30
0.0
  0
POINT
  5
2423
330
2418
100
AcDbEntity
  8
Defpoints
  6
Continuous
 62
     0
100
AcDbPoint
 10
-2256.199911507661
 20
-16.05308420357504
 30
0.0
  0
POINT
  5
2424
330
2418
100
AcDbEntity
  8
Defpoints
  6
Continuous
 62
     0
100
AcDbPoint
 10
-2382.543516101425
 20
-16.053084203575
 30
0.0
  0
ENDBLK
  5
241A
330
2418
100
AcDbEntity
  8
0
100
AcDbBlockEnd
  0
BLOCK
  5
2427
330
2426
100
AcDbEntity
  8
0
100
AcDbBlockBegin
  2
*D29
 70
     1
 10
0.0
 20
0.0
 30
0.0
  3
*D29
  1

  0
LINE
  5
2429
330
2426
100
AcDbEntity
  8
0
  6
Continuous
 62
     0
370
    -2
100
AcDbLine
 10
-2291.199911507662
 20
-124.053084203575
 30
0.0
 11
-2534.356418899315
 21
-124.053084203575
 31
0.0
  0
LINE
  5
242A
330
2426
100
AcDbEntity
  8
0
  6
Continuous
 62
     0
370
    -2
100
AcDbLine
 10
-2291.199911507662
 20
175.9469157964249
 30
0.0
 11
-2534.356418899315
 21
175.946915796425
 31
0.0
  0
LINE
  5
242B
330
2426
100
AcDbEntity
  8
0
  6
Continuous
 62
     0
370
    -2
100
AcDbLine
 10
-2514.356418899315
 20
-74.05308420357499
 30
0.0
 11
-2514.356418899315
 21
-4.598786795662312
 31
0.0
  0
LINE
  5
242C
330
2426
100
AcDbEntity
  8
0
  6
Continuous
 62
     0
370
    -2
100
AcDbLine
 10
-2514.356418899315
 20
125.946915796425
 30
0.0
 11
-2514.356418899315
 21
56.49261838851232
 31
0.0
  0
SOLID
  5
242D
330
2426
100
AcDbEntity
  8
0
  6
Continuous
 62
     0
100
AcDbTrace
 10
-2522.689752232649
 20
-74.05308420357499
 30
0.0
 11
-2506.023085565982
 21
-74.05308420357499
 31
0.0
 12
-2514.356418899315
 22
-124.053084203575
 32
0.0
 13
-2514.356418899315
 23
-124.053084203575
 33
0.0
  0
SOLID
  5
242E
330
2426
100
AcDbEntity
  8
0
  6
Continuous
 62
     0
100
AcDbTrace
 10
-2522.689752232649
 20
125.946915796425
 30
0.0
 11
-2506.023085565982
 21
125.946915796425
 31
0.0
 12
-2514.356418899315
 22
175.946915796425
 32
0.0
 13
-2514.356418899315
 23
175.946915796425
 33
0.0
  0
MTEXT
  5
242F
330
2426
100
AcDbEntity
  8
0
  6
Continuous
 62
     0
100
AcDbMText
 10
-2514.356418899315
 20
25.94691579642459
 30
0.0
 40
50.0
 41
0.0
 71
     5
 72
     1
  1
\A1;300
 73
     1
 44
1.0
1001
ACAD
1000
MTEXTBEGIN
1070
    73
1070
     1
1070
    44
1040
1.0
1070
    74
1070
     0
1000
MTEXTEND
  0
POINT
  5
2430
330
2426
100
AcDbEntity
  8
Defpoints
  6
Continuous
 62
     0
100
AcDbPoint
 10
-2291.199911507662
 20
-124.053084203575
 30
0.0
  0
POINT
  5
2431
330
2426
100
AcDbEntity
  8
Defpoints
  6
Continuous
 62
     0
100
AcDbPoint
 10
-2291.199911507662
 20
175.9469157964249
 30
0.0
  0
POINT
  5
2432
330
2426
100
AcDbEntity
  8
Defpoints
  6
Continuous
 62
     0
100
AcDbPoint
 10
-2514.356418899315
 20
175.946915796425
 30
0.0
  0
ENDBLK
  5
2428
330
2426
100
AcDbEntity
  8
0
100
AcDbBlockEnd
  0
BLOCK
  5
2440
330
243F
100
AcDbEntity
  8
0
100
AcDbBlockBegin
  2
*D30
 70
     1
 10
0.0
 20
0.0
 30
0.0
  3
*D30
  1

  0
LINE
  5
249D
330
243F
100
AcDbEntity
  8
0
  6
Continuous
 62
     0
370
    -2
100
AcDbLine
 10
-1876.199911507661
 20
33.94691579642495
 30
0.0
 11
-1734.97686083887
 21
33.9469157964249
 31
0.0
  0
LINE
  5
249E
330
243F
100
AcDbEntity
  8
0
  6
Continuous
 62
     0
370
    -2
100
AcDbLine
 10
-1841.199911507661
 20
-124.053084203575
 30
0.0
 11
-1734.97686083887
 21
-124.0530842035751
 31
0.0
  0
LINE
  5
249F
330
243F
100
AcDbEntity
  8
0
  6
Continuous
 62
     0
370
    -2
100
AcDbLine
 10
-1754.976860838869
 20
-16.05308420357509
 30
0.0
 11
-1754.976860838869
 21
-74.05308420357508
 31
0.0
  0
LINE
  5
24A0
330
243F
100
AcDbEntity
  8
0
  6
Continuous
 62
     0
370
    -2
100
AcDbLine
 10
-1754.976860838869
 20
-124.0530842035751
 30
0.0
 11
-1754.976860838869
 21
-230.8572545530057
 31
0.0
  0
LINE
  5
24A1
330
243F
100
AcDbEntity
  8
0
  6
Continuous
 62
     0
370
    -2
100
AcDbLine
 10
-1754.976860838869
 20
-230.8572545530057
 30
0.0
 11
-1865.843163703808
 21
-230.8572545530057
 31
0.0
  0
SOLID
  5
24A2
330
243F
100
AcDbEntity
  8
0
  6
Continuous
 62
     0
100
AcDbTrace
 10
-1763.310194172203
 20
-16.05308420357509
 30
0.0
 11
-1746.643527505536
 21
-16.05308420357509
 31
0.0
 12
-1754.976860838869
 22
33.94691579642491
 32
0.0
 13
-1754.976860838869
 23
33.94691579642491
 33
0.0
  0
SOLID
  5
24A3
330
243F
100
AcDbEntity
  8
0
  6
Continuous
 62
     0
100
AcDbTrace
 10
-1763.310194172203
 20
-74.05308420357506
 30
0.0
 11
-1746.643527505536
 21
-74.05308420357508
 31
0.0
 12
-1754.976860838869
 22
-124.0530842035751
 32
0.0
 13
-1754.976860838869
 23
-124.0530842035751
 33
0.0
  0
MTEXT
  5
24A4
330
243F
100
AcDbEntity
  8
0
  6
Continuous
 62
     0
100
AcDbMText
 10
-1812.910012271339
 20
-200.3286051669214
 30
0.0
 40
50.0
 41
0.0
 71
     5
 72
     1
  1
\A1;158
 73
     1
 44
1.0
1001
ACAD
1000
MTEXTBEGIN
1070
    73
1070
     1
1070
    44
1040
1.0
1070
    74
1070
     0
1000
MTEXTEND
  0
POINT
  5
24A5
330
243F
100
AcDbEntity
  8
Defpoints
  6
Continuous
 62
     0
100
AcDbPoint
 10
-1876.199911507661
 20
33.94691579642495
 30
0.0
  0
POINT
  5
24A6
330
243F
100
AcDbEntity
  8
Defpoints
  6
Continuous
 62
     0
100
AcDbPoint
 10
-1841.199911507661
 20
-124.053084203575
 30
0.0
  0
POINT
  5
24A7
330
243F
100
AcDbEntity
  8
Defpoints
  6
Continuous
 62
     0
100
AcDbPoint
 10
-1754.976860838869
 20
-124.0530842035751
 30
0.0
  0
ENDBLK
  5
2441
330
243F
100
AcDbEntity
  8
0
100
AcDbBlockEnd
  0
BLOCK
  5
245B
330
245A
100
AcDbEntity
  8
0
100
AcDbBlockBegin
  2
*D31
 70
     1
 10
0.0
 20
0.0
 30
0.0
  3
*D31
  1

  0
LINE
  5
24A8
330
245A
100
AcDbEntity
  8
0
  6
Continuous
 62
     0
370
    -2
100
AcDbLine
 10
-1941.199911507661
 20
75.94691579642494
 30
0.0
 11
-1639.088790412287
 21
75.94691579642487
 31
0.0
  0
LINE
  5
24A9
330
245A
100
AcDbEntity
  8
0
  6
Continuous
 62
     0
370
    -2
100
AcDbLine
 10
-1841.199911507661
 20
-124.053084203575
 30
0.0
 11
-1639.088790412287
 21
-124.0530842035751
 31
0.0
  0
LINE
  5
24AA
330
245A
100
AcDbEntity
  8
0
  6
Continuous
 62
     0
370
    -2
100
AcDbLine
 10
-1659.088790412286
 20
25.94691579642488
 30
0.0
 11
-1659.088790412286
 21
6.475565182509465
 31
0.0
  0
LINE
  5
24AB
330
245A
100
AcDbEntity
  8
0
  6
Continuous
 62
     0
370
    -2
100
AcDbLine
 10
-1659.088790412286
 20
-74.05308420357511
 30
0.0
 11
-1659.088790412286
 21
-54.58173358965971
 31
0.0
  0
SOLID
  5
24AC
330
245A
100
AcDbEntity
  8
0
  6
Continuous
 62
     0
100
AcDbTrace
 10
-1667.42212374562
 20
25.94691579642488
 30
0.0
 11
-1650.755457078953
 21
25.94691579642487
 31
0.0
 12
-1659.088790412286
 22
75.94691579642487
 32
0.0
 13
-1659.088790412286
 23
75.94691579642487
 33
0.0
  0
SOLID
  5
24AD
330
245A
100
AcDbEntity
  8
0
  6
Continuous
 62
     0
100
AcDbTrace
 10
-1667.42212374562
 20
-74.05308420357511
 30
0.0
 11
-1650.755457078953
 21
-74.05308420357511
 31
0.0
 12
-1659.088790412286
 22
-124.0530842035751
 32
0.0
 13
-1659.088790412286
 23
-124.0530842035751
 33
0.0
  0
MTEXT
  5
24AE
330
245A
100
AcDbEntity
  8
0
  6
Continuous
 62
     0
100
AcDbMText
 10
-1659.088790412286
 20
-24.05308420357539
 30
0.0
 40
50.0
 41
0.0
 71
     5
 72
     1
  1
\A1;200
 73
     1
 44
1.0
1001
ACAD
1000
MTEXTBEGIN
1070
    73
1070
     1
1070
    44
1040
1.0
1070
    74
1070
     0
1000
MTEXTEND
  0
POINT
  5
24AF
330
245A
100
AcDbEntity
  8
Defpoints
  6
Continuous
 62
     0
100
AcDbPoint
 10
-1941.199911507661
 20
75.94691579642494
 30
0.0
  0
POINT
  5
24B0
330
245A
100
AcDbEntity
  8
Defpoints
  6
Continuous
 62
     0
100
AcDbPoint
 10
-1841.199911507661
 20
-124.053084203575
 30
0.0
  0
POINT
  5
24B1
330
245A
100
AcDbEntity
  8
Defpoints
  6
Continuous
 62
     0
100
AcDbPoint
 10
-1659.088790412286
 20
-124.0530842035751
 30
0.0
  0
ENDBLK
  5
245C
330
245A
100
AcDbEntity
  8
0
100
AcDbBlockEnd
  0
BLOCK
  5
24B4
330
24B3
100
AcDbEntity
  8
0
100
AcDbBlockBegin
  2
*D32
 70
     1
 10
0.0
 20
0.0
 30
0.0
  3
*D32
  1

  0
LINE
  5
24B6
330
24B3
100
AcDbEntity
  8
0
  6
Continuous
 62
     0
370
    -2
100
AcDbLine
 10
-2191.199911507661
 20
75.94691579642494
 30
0.0
 11
-2191.199911507661
 21
316.3322304776611
 31
0.0
  0
LINE
  5
24B7
330
24B3
100
AcDbEntity
  8
0
  6
Continuous
 62
     0
370
    -2
100
AcDbLine
 10
-1941.199911507661
 20
75.94691579642494
 30
0.0
 11
-1941.199911507661
 21
316.3322304776611
 31
0.0
  0
LINE
  5
24B8
330
24B3
100
AcDbEntity
  8
0
  6
Continuous
 62
     0
370
    -2
100
AcDbLine
 10
-2141.199911507662
 20
296.3322304776611
 30
0.0
 11
-1991.199911507661
 21
296.3322304776611
 31
0.0
  0
SOLID
  5
24B9
330
24B3
100
AcDbEntity
  8
0
  6
Continuous
 62
     0
100
AcDbTrace
 10
-2141.199911507662
 20
304.6655638109945
 30
0.0
 11
-2141.199911507662
 21
287.9988971443278
 31
0.0
 12
-2191.199911507661
 22
296.3322304776611
 32
0.0
 13
-2191.199911507661
 23
296.3322304776611
 33
0.0
  0
SOLID
  5
24BA
330
24B3
100
AcDbEntity
  8
0
  6
Continuous
 62
     0
100
AcDbTrace
 10
-1991.199911507661
 20
304.6655638109945
 30
0.0
 11
-1991.199911507661
 21
287.9988971443278
 31
0.0
 12
-1941.199911507661
 22
296.3322304776611
 32
0.0
 13
-1941.199911507661
 23
296.3322304776611
 33
0.0
  0
MTEXT
  5
24BB
330
24B3
100
AcDbEntity
  8
0
  6
Continuous
 62
     0
100
AcDbMText
 10
-2066.199911507661
 20
326.8608798637457
 30
0.0
 40
50.0
 41
0.0
 71
     5
 72
     1
  1
\A1;250
 73
     1
 44
1.0
1001
ACAD
1000
MTEXTBEGIN
1070
    73
1070
     1
1070
    44
1040
1.0
1070
    74
1070
     0
1000
MTEXTEND
  0
POINT
  5
24BC
330
24B3
100
AcDbEntity
  8
Defpoints
  6
Continuous
 62
     0
100
AcDbPoint
 10
-2191.199911507661
 20
75.94691579642494
 30
0.0
  0
POINT
  5
24BD
330
24B3
100
AcDbEntity
  8
Defpoints
  6
Continuous
 62
     0
100
AcDbPoint
 10
-1941.199911507661
 20
75.94691579642494
 30
0.0
  0
POINT
  5
24BE
330
24B3
100
AcDbEntity
  8
Defpoints
  6
Continuous
 62
     0
100
AcDbPoint
 10
-1941.199911507661
 20
296.3322304776611
 30
0.0
  0
ENDBLK
  5
24B5
330
24B3
100
AcDbEntity
  8
0
100
AcDbBlockEnd
  0
BLOCK
  5
24C1
330
24C0
100
AcDbEntity
  8
0
100
AcDbBlockBegin
  2
*D33
 70
     1
 10
0.0
 20
0.0
 30
0.0
  3
*D33
  1

  0
LINE
  5
24C3
330
24C0
100
AcDbEntity
  8
0
  6
Continuous
 62
     0
370
    -2
100
AcDbLine
 10
-2256.199911507661
 20
-16.05308420357504
 30
0.0
 11
-2256.199911507661
 21
415.6839582053817
 31
0.0
  0
LINE
  5
24C4
330
24C0
100
AcDbEntity
  8
0
  6
Continuous
 62
     0
370
    -2
100
AcDbLine
 10
-1876.199911507661
 20
33.94691579642495
 30
0.0
 11
-1876.199911507661
 21
415.6839582053817
 31
0.0
  0
LINE
  5
24C5
330
24C0
100
AcDbEntity
  8
0
  6
Continuous
 62
     0
370
    -2
100
AcDbLine
 10
-2206.199911507662
 20
395.6839582053817
 30
0.0
 11
-1926.199911507661
 21
395.6839582053817
 31
0.0
  0
SOLID
  5
24C6
330
24C0
100
AcDbEntity
  8
0
  6
Continuous
 62
     0
100
AcDbTrace
 10
-2206.199911507662
 20
404.017291538715
 30
0.0
 11
-2206.199911507662
 21
387.3506248720484
 31
0.0
 12
-2256.199911507661
 22
395.6839582053817
 32
0.0
 13
-2256.199911507661
 23
395.6839582053817
 33
0.0
  0
SOLID
  5
24C7
330
24C0
100
AcDbEntity
  8
0
  6
Continuous
 62
     0
100
AcDbTrace
 10
-1926.199911507661
 20
404.017291538715
 30
0.0
 11
-1926.199911507661
 21
387.3506248720484
 31
0.0
 12
-1876.199911507661
 22
395.6839582053817
 32
0.0
 13
-1876.199911507661
 23
395.6839582053817
 33
0.0
  0
MTEXT
  5
24C8
330
24C0
100
AcDbEntity
  8
0
  6
Continuous
 62
     0
100
AcDbMText
 10
-2066.199911507661
 20
426.229660797469
 30
0.0
 40
50.0
 41
0.0
 71
     5
 72
     1
  1
\A1;380
 73
     1
 44
1.0
1001
ACAD
1000
MTEXTBEGIN
1070
    73
1070
     1
1070
    44
1040
1.0
1070
    74
1070
     0
1000
MTEXTEND
  0
POINT
  5
24C9
330
24C0
100
AcDbEntity
  8
Defpoints
  6
Continuous
 62
     0
100
AcDbPoint
 10
-2256.199911507661
 20
-16.05308420357504
 30
0.0
  0
POINT
  5
24CA
330
24C0
100
AcDbEntity
  8
Defpoints
  6
Continuous
 62
     0
100
AcDbPoint
 10
-1876.199911507661
 20
33.94691579642495
 30
0.0
  0
POINT
  5
24CB
330
24C0
100
AcDbEntity
  8
Defpoints
  6
Continuous
 62
     0
100
AcDbPoint
 10
-1876.199911507661
 20
395.6839582053817
 30
0.0
  0
ENDBLK
  5
24C2
330
24C0
100
AcDbEntity
  8
0
100
AcDbBlockEnd
  0
BLOCK
  5
24DE
330
24DD
100
AcDbEntity
  8
0
100
AcDbBlockBegin
  2
*D35
 70
     1
 10
0.0
 20
0.0
 30
0.0
  3
*D35
  1

  0
LINE
  5
252A
330
24DD
100
AcDbEntity
  8
0
  6
Continuous
 62
     0
370
    -2
100
AcDbLine
 10
-2291.199911507661
 20
-779.053084203575
 30
0.0
 11
-2291.199911507661
 21
-663.142166611964
 31
0.0
  0
LINE
  5
252B
330
24DD
100
AcDbEntity
  8
0
  6
Continuous
 62
     0
370
    -2
100
AcDbLine
 10
-1841.199911507661
 20
-779.0530842035749
 30
0.0
 11
-1841.199911507661
 21
-663.142166611964
 31
0.0
  0
LINE
  5
252C
330
24DD
100
AcDbEntity
  8
0
  6
Continuous
 62
     0
370
    -2
100
AcDbLine
 10
-2241.199911507661
 20
-683.142166611964
 30
0.0
 11
-1891.19991150766
 21
-683.142166611964
 31
0.0
  0
SOLID
  5
252D
330
24DD
100
AcDbEntity
  8
0
  6
Continuous
 62
     0
100
AcDbTrace
 10
-2241.199911507661
 20
-674.8088332786307
 30
0.0
 11
-2241.199911507661
 21
-691.4754999452974
 31
0.0
 12
-2291.199911507661
 22
-683.142166611964
 32
0.0
 13
-2291.199911507661
 23
-683.142166611964
 33
0.0
  0
SOLID
  5
252E
330
24DD
100
AcDbEntity
  8
0
  6
Continuous
 62
     0
100
AcDbTrace
 10
-1891.19991150766
 20
-674.8088332786307
 30
0.0
 11
-1891.19991150766
 21
-691.4754999452974
 31
0.0
 12
-1841.199911507661
 22
-683.142166611964
 32
0.0
 13
-1841.199911507661
 23
-683.142166611964
 33
0.0
  0
MTEXT
  5
252F
330
24DD
100
AcDbEntity
  8
0
  6
Continuous
 62
     0
100
AcDbMText
 10
-2066.199911507661
 20
-652.6135172258794
 30
0.0
 40
50.0
 41
0.0
 71
     5
 72
     1
  1
\A1;450
 73
     1
 44
1.0
1001
ACAD
1000
MTEXTBEGIN
1070
    73
1070
     1
1070
    44
1040
1.0
1070
    74
1070
     0
1000
MTEXTEND
  0
POINT
  5
2530
330
24DD
100
AcDbEntity
  8
Defpoints
  6
Continuous
 62
     0
100
AcDbPoint
 10
-2291.199911507661
 20
-779.053084203575
 30
0.0
  0
POINT
  5
2531
330
24DD
100
AcDbEntity
  8
Defpoints
  6
Continuous
 62
     0
100
AcDbPoint
 10
-1841.199911507661
 20
-779.0530842035749
 30
0.0
  0
POINT
  5
2532
330
24DD
100
AcDbEntity
  8
Defpoints
  6
Continuous
 62
     0
100
AcDbPoint
 10
-1841.199911507661
 20
-683.142166611964
 30
0.0
  0
ENDBLK
  5
24DF
330
24DD
100
AcDbEntity
  8
0
100
AcDbBlockEnd
  0
BLOCK
  5
24EB
330
24EA
100
AcDbEntity
  8
0
100
AcDbBlockBegin
  2
*D36
 70
     1
 10
0.0
 20
0.0
 30
0.0
  3
*D36
  1

  0
LINE
  5
2533
330
24EA
100
AcDbEntity
  8
0
  6
Continuous
 62
     0
370
    -2
100
AcDbLine
 10
-1841.199911507661
 20
-779.053084203575
 30
0.0
 11
-1711.875650769594
 21
-779.0530842035751
 31
0.0
  0
LINE
  5
2534
330
24EA
100
AcDbEntity
  8
0
  6
Continuous
 62
     0
370
    -2
100
AcDbLine
 10
-1841.199911507661
 20
-1229.053084203575
 30
0.0
 11
-1711.875650769594
 21
-1229.053084203575
 31
0.0
  0
LINE
  5
2535
330
24EA
100
AcDbEntity
  8
0
  6
Continuous
 62
     0
370
    -2
100
AcDbLine
 10
-1731.875650769594
 20
-829.0530842035751
 30
0.0
 11
-1731.875650769594
 21
-973.5244348174905
 31
0.0
  0
LINE
  5
2536
330
24EA
100
AcDbEntity
  8
0
  6
Continuous
 62
     0
370
    -2
100
AcDbLine
 10
-1731.875650769594
 20
-1179.053084203575
 30
0.0
 11
-1731.875650769594
 21
-1034.58173358966
 31
0.0
  0
SOLID
  5
2537
330
24EA
100
AcDbEntity
  8
0
  6
Continuous
 62
     0
100
AcDbTrace
 10
-1740.208984102928
 20
-829.0530842035751
 30
0.0
 11
-1723.542317436261
 21
-829.0530842035751
 31
0.0
 12
-1731.875650769594
 22
-779.0530842035751
 32
0.0
 13
-1731.875650769594
 23
-779.0530842035751
 33
0.0
  0
SOLID
  5
2538
330
24EA
100
AcDbEntity
  8
0
  6
Continuous
 62
     0
100
AcDbTrace
 10
-1740.208984102928
 20
-1179.053084203575
 30
0.0
 11
-1723.542317436261
 21
-1179.053084203575
 31
0.0
 12
-1731.875650769594
 22
-1229.053084203575
 32
0.0
 13
-1731.875650769594
 23
-1229.053084203575
 33
0.0
  0
MTEXT
  5
2539
330
24EA
100
AcDbEntity
  8
0
  6
Continuous
 62
     0
100
AcDbMText
 10
-1731.875650769594
 20
-1004.053084203575
 30
0.0
 40
50.0
 41
0.0
 71
     5
 72
     1
  1
\A1;450
 73
     1
 44
1.0
1001
ACAD
1000
MTEXTBEGIN
1070
    73
1070
     1
1070
    44
1040
1.0
1070
    74
1070
     0
1000
MTEXTEND
  0
POINT
  5
253A
330
24EA
100
AcDbEntity
  8
Defpoints
  6
Continuous
 62
     0
100
AcDbPoint
 10
-1841.199911507661
 20
-779.053084203575
 30
0.0
  0
POINT
  5
253B
330
24EA
100
AcDbEntity
  8
Defpoints
  6
Continuous
 62
     0
100
AcDbPoint
 10
-1841.199911507661
 20
-1229.053084203575
 30
0.0
  0
POINT
  5
253C
330
24EA
100
AcDbEntity
  8
Defpoints
  6
Continuous
 62
     0
100
AcDbPoint
 10
-1731.875650769594
 20
-1229.053084203575
 30
0.0
  0
ENDBLK
  5
24EC
330
24EA
100
AcDbEntity
  8
0
100
AcDbBlockEnd
  0
BLOCK
  5
250C
330
250B
100
AcDbEntity
  8
0
100
AcDbBlockBegin
  2
*D37
 70
     1
 10
0.0
 20
0.0
 30
0.0
  3
*D37
  1

  0
LINE
  5
250E
330
250B
100
AcDbEntity
  8
0
  6
Continuous
 62
     0
370
    -2
100
AcDbLine
 10
-2261.699926766451
 20
-429.053084203575
 30
0.0
 11
-2261.699926766451
 21
-530.2408810671659
 31
0.0
  0
LINE
  5
250F
330
250B
100
AcDbEntity
  8
0
  6
Continuous
 62
     0
370
    -2
100
AcDbLine
 10
-2101.699903878267
 20
-429.053084203575
 30
0.0
 11
-2101.699903878267
 21
-530.2408810671659
 31
0.0
  0
LINE
  5
2510
330
250B
100
AcDbEntity
  8
0
  6
Continuous
 62
     0
370
    -2
100
AcDbLine
 10
-2211.699926766451
 20
-510.2408810671659
 30
0.0
 11
-2151.699903878267
 21
-510.2408810671659
 31
0.0
  0
SOLID
  5
2511
330
250B
100
AcDbEntity
  8
0
  6
Continuous
 62
     0
100
AcDbTrace
 10
-2211.699926766451
 20
-501.9075477338326
 30
0.0
 11
-2211.699926766451
 21
-518.5742144004993
 31
0.0
 12
-2261.699926766451
 22
-510.2408810671659
 32
0.0
 13
-2261.699926766451
 23
-510.2408810671659
 33
0.0
  0
SOLID
  5
2512
330
250B
100
AcDbEntity
  8
0
  6
Continuous
 62
     0
100
AcDbTrace
 10
-2151.699903878267
 20
-501.9075477338326
 30
0.0
 11
-2151.699903878267
 21
-518.5742144004993
 31
0.0
 12
-2101.699903878267
 22
-510.2408810671659
 32
0.0
 13
-2101.699903878267
 23
-510.2408810671659
 33
0.0
  0
MTEXT
  5
2513
330
250B
100
AcDbEntity
  8
0
  6
Continuous
 62
     0
100
AcDbMText
 10
-2181.699915322359
 20
-479.7122316810813
 30
0.0
 40
50.0
 41
0.0
 71
     5
 72
     1
  1
\A1;160
 73
     1
 44
1.0
1001
ACAD
1000
MTEXTBEGIN
1070
    73
1070
     1
1070
    44
1040
1.0
1070
    74
1070
     0
1000
MTEXTEND
  0
POINT
  5
2514
330
250B
100
AcDbEntity
  8
Defpoints
  6
Continuous
 62
     0
100
AcDbPoint
 10
-2261.699926766451
 20
-429.053084203575
 30
0.0
  0
POINT
  5
2515
330
250B
100
AcDbEntity
  8
Defpoints
  6
Continuous
 62
     0
100
AcDbPoint
 10
-2101.699903878267
 20
-429.053084203575
 30
0.0
  0
POINT
  5
2516
330
250B
100
AcDbEntity
  8
Defpoints
  6
Continuous
 62
     0
100
AcDbPoint
 10
-2101.699903878267
 20
-510.2408810671659
 30
0.0
  0
ENDBLK
  5
250D
330
250B
100
AcDbEntity
  8
0
100
AcDbBlockEnd
  0
ENDSEC
  0
SECTION
  2
ENTITIES
  0
LINE
  5
23E5
330
A
100
AcDbEntity
  8
0
  6
CONTINU
 62
     7
100
AcDbLine
 10
-2101.699903878267
 20
-429.053084203575
 30
0.0
 11
-1870.699743660981
 21
-124.053084203575
 31
0.0
  0
LINE
  5
23E6
330
A
100
AcDbEntity
  8
0
  6
CONTINU
 62
     7
100
AcDbLine
 10
-2256.199896248872
 20
175.946946314003
 30
0.0
 11
-2214.199987801607
 21
217.946946314003
 31
0.0
  0
LINE
  5
23E7
330
A
100
AcDbEntity
  8
0
  6
CONTINU
 62
     7
100
AcDbLine
 10
-1918.199835213716
 20
217.946946314003
 30
0.0
 11
-1876.199926766451
 21
175.946946314003
 31
0.0
  0
LINE
  5
23E8
330
A
100
AcDbEntity
  8
0
  6
CONTINU
 62
     7
100
AcDbLine
 10
-1841.199911507661
 20
-124.053084203575
 30
0.0
 11
-1841.199911507661
 21
175.9469157964249
 31
0.0
  0
LINE
  5
23E9
330
A
100
AcDbEntity
  8
0
  6
CONTINU
 62
     7
100
AcDbLine
 10
-2261.699926766451
 20
-429.053084203575
 30
0.0
 11
-2261.699911507662
 21
-124.053084203575
 31
0.0
  0
LINE
  5
23EA
330
A
100
AcDbEntity
  8
0
  6
CONTINU
 62
     7
100
AcDbLine
 10
-2291.199911507662
 20
-124.053084203575
 30
0.0
 11
-2291.199911507662
 21
175.9469157964249
 31
0.0
  0
LINE
  5
23EB
330
A
100
AcDbEntity
  8
0
  6
CONTINU
 62
     7
100
AcDbLine
 10
-2214.199987801607
 20
217.946946314003
 30
0.0
 11
-1918.199835213716
 21
217.946946314003
 31
0.0
  0
LINE
  5
23EC
330
A
100
AcDbEntity
  8
0
  6
CONTINU
 62
     7
100
AcDbLine
 10
-2291.199911507662
 20
175.9469157964249
 30
0.0
 11
-1841.199911507661
 21
175.9469157964249
 31
0.0
  0
LINE
  5
23ED
330
A
100
AcDbEntity
  8
0
  6
CONTINU
 62
     7
100
AcDbLine
 10
-2291.199911507662
 20
-124.053084203575
 30
0.0
 11
-1841.199911507661
 21
-124.053084203575
 31
0.0
  0
LINE
  5
23EE
330
A
100
AcDbEntity
  8
0
  6
CONTINU
 62
     7
100
AcDbLine
 10
-2261.699926766451
 20
-429.053084203575
 30
0.0
 11
-2101.699903878267
 21
-429.053084203575
 31
0.0
  0
CIRCLE
  5
23F9
330
A
100
AcDbEntity
  8
0
  6
CONTINU
 62
     7
100
AcDbCircle
 10
-2066.199917229706
 20
-1004.053086110924
 30
0.0
 40
189.9999694824218
  0
CIRCLE
  5
23FA
330
A
100
AcDbEntity
  8
0
  6
CONTINU
 62
     7
100
AcDbCircle
 10
-2066.199917229706
 20
-1004.053086110924
 30
0.0
 40
148.0000762939453
  0
LINE
  5
23FB
330
A
100
AcDbEntity
  8
0
  6
CONTINU
 62
     7
100
AcDbLine
 10
-1841.199911507661
 20
-1229.053084203575
 30
0.0
 11
-1841.199911507661
 21
-779.053084203575
 31
0.0
  0
LINE
  5
23FC
330
A
100
AcDbEntity
  8
0
  6
CONTINU
 62
     7
100
AcDbLine
 10
-2291.199911507661
 20
-1229.053084203575
 30
0.0
 11
-2291.199911507661
 21
-779.053084203575
 31
0.0
  0
LINE
  5
23FD
330
A
100
AcDbEntity
  8
0
  6
CONTINU
 62
     7
100
AcDbLine
 10
-2291.199911507661
 20
-779.053084203575
 30
0.0
 11
-1841.199911507661
 21
-779.053084203575
 31
0.0
  0
LINE
  5
23FE
330
A
100
AcDbEntity
  8
0
  6
CONTINU
 62
     7
100
AcDbLine
 10
-2291.199911507661
 20
-1229.053084203575
 30
0.0
 11
-1841.199911507661
 21
-1229.053084203575
 31
0.0
  0
DIMENSION
  5
23FF
330
A
100
AcDbEntity
  8
0
  6
Continuous
100
AcDbDimension
  2
*D27
 10
-2658.843634263849
 20
-429.0530842035749
 30
0.0
 11
-2658.843634263849
 21
-105.5530689447863
 31
0.0
 70
    32
 71
     5
 42
647.0000305175781
  3
STANDARD
100
AcDbAlignedDimension
 13
-2066.199911507661
 23
217.946946314003
 33
0.0
 14
-2261.699926766451
 24
-429.053084203575
 34
0.0
 50
90.0
100
AcDbRotatedDimension
1001
ACAD
1000
DSTYLE
1002
{
1070
    41
1040
50.0
1070
    42
1040
0.0
1070
    43
1040
0.0
1070
    44
1040
20.0
1070
    77
1070
     1
1070
   140
1040
50.0
1070
   147
1040
5.0
1070
   271
1070
     0
1070
   272
1070
     0
1070
   289
1070
     3
1002
}
  0
CIRCLE
  5
2413
330
A
100
AcDbEntity
  8
0
  6
Continuous
100
AcDbCircle
 10
-2256.199911507661
 20
-16.05308420357504
 30
0.0
 40
17.5
  0
DIMENSION
  5
2417
330
A
100
AcDbEntity
  8
0
  6
Continuous
100
AcDbDimension
  2
*D28
 10
-2382.543516101425
 20
-16.053084203575
 30
0.0
 11
-2382.543516101425
 21
-70.05308420357541
 31
0.0
 70
    32
 71
     5
 42
108.0
  3
STANDARD
100
AcDbAlignedDimension
 13
-2291.199911507662
 23
-124.053084203575
 33
0.0
 14
-2256.199911507661
 24
-16.05308420357504
 34
0.0
 50
90.0
100
AcDbRotatedDimension
1001
ACAD
1000
DSTYLE
1002
{
1070
    41
1040
50.0
1070
    42
1040
0.0
1070
    43
1040
0.0
1070
    44
1040
20.0
1070
    77
1070
     1
1070
   140
1040
50.0
1070
   147
1040
5.0
1070
   271
1070
     0
1070
   272
1070
     0
1070
   289
1070
     3
1002
}
  0
DIMENSION
  5
2425
330
A
100
AcDbEntity
  8
0
  6
Continuous
100
AcDbDimension
  2
*D29
 10
-2514.356418899315
 20
175.946915796425
 30
0.0
 11
-2514.356418899315
 21
25.94691579642459
 31
0.0
 70
    32
 71
     5
 42
300.0
  3
STANDARD
100
AcDbAlignedDimension
 13
-2291.199911507662
 23
-124.053084203575
 33
0.0
 14
-2291.199911507662
 24
175.9469157964249
 34
0.0
 50
90.0
100
AcDbRotatedDimension
1001
ACAD
1000
DSTYLE
1002
{
1070
    41
1040
50.0
1070
    42
1040
0.0
1070
    43
1040
0.0
1070
    44
1040
20.0
1070
    77
1070
     1
1070
   140
1040
50.0
1070
   147
1040
5.0
1070
   271
1070
     0
1070
   272
1070
     0
1070
   289
1070
     3
1002
}
  0
CIRCLE
  5
243D
330
A
100
AcDbEntity
  8
0
  6
Continuous
100
AcDbCircle
 10
-1876.199911507661
 20
33.94691579642495
 30
0.0
 40
17.5
  0
DIMENSION
  5
243E
330
A
100
AcDbEntity
  8
0
  6
Continuous
100
AcDbDimension
  2
*D30
 10
-1754.976860838869
 20
-124.0530842035751
 30
0.0
 11
-1812.910012271339
 21
-230.857254553006
 31
0.0
 70
   160
 71
     5
 42
158.0
  3
STANDARD
100
AcDbAlignedDimension
 13
-1876.199911507661
 23
33.94691579642495
 33
0.0
 14
-1841.199911507661
 24
-124.053084203575
 34
0.0
 50
90.0
100
AcDbRotatedDimension
1001
ACAD
1000
DSTYLE
1002
{
1070
    41
1040
50.0
1070
    42
1040
0.0
1070
    43
1040
0.0
1070
    44
1040
20.0
1070
    77
1070
     1
1070
   140
1040
50.0
1070
   147
1040
5.0
1070
   271
1070
     0
1070
   272
1070
     0
1070
   289
1070
     3
1002
}
  0
CIRCLE
  5
2457
330
A
100
AcDbEntity
  8
0
  6
Continuous
100
AcDbCircle
 10
-1941.199911507661
 20
75.94691579642494
 30
0.0
 40
10.0
  0
CIRCLE
  5
2458
330
A
100
AcDbEntity
  8
0
  6
Continuous
100
AcDbCircle
 10
-2191.199911507661
 20
75.94691579642494
 30
0.0
 40
10.0
  0
DIMENSION
  5
2459
330
A
100
AcDbEntity
  8
0
  6
Continuous
100
AcDbDimension
  2
*D31
 10
-1659.088790412286
 20
-124.0530842035751
 30
0.0
 11
-1659.088790412286
 21
-24.05308420357539
 31
0.0
 70
    32
 71
     5
 42
200.0
  3
STANDARD
100
AcDbAlignedDimension
 13
-1941.199911507661
 23
75.94691579642494
 33
0.0
 14
-1841.199911507661
 24
-124.053084203575
 34
0.0
 50
90.0
100
AcDbRotatedDimension
1001
ACAD
1000
DSTYLE
1002
{
1070
    41
1040
50.0
1070
    42
1040
0.0
1070
    43
1040
0.0
1070
    44
1040
20.0
1070
    77
1070
     1
1070
   140
1040
50.0
1070
   147
1040
5.0
1070
   271
1070
     0
1070
   272
1070
     0
1070
   289
1070
     3
1002
}
  0
DIMENSION
  5
24B2
330
A
100
AcDbEntity
  8
0
  6
Continuous
100
AcDbDimension
  2
*D32
 10
-1941.199911507661
 20
296.3322304776611
 30
0.0
 11
-2066.199911507661
 21
326.8608798637457
 31
0.0
 70
    32
 71
     5
 42
250.0
  3
STANDARD
100
AcDbAlignedDimension
 13
-2191.199911507661
 23
75.94691579642494
 33
0.0
 14
-1941.199911507661
 24
75.94691579642494
 34
0.0
100
AcDbRotatedDimension
1001
ACAD
1000
DSTYLE
1002
{
1070
    41
1040
50.0
1070
    42
1040
0.0
1070
    43
1040
0.0
1070
    44
1040
20.0
1070
    77
1070
     1
1070
   140
1040
50.0
1070
   147
1040
5.0
1070
   271
1070
     0
1070
   272
1070
     0
1070
   289
1070
     3
1002
}
  0
DIMENSION
  5
24BF
330
A
100
AcDbEntity
  8
0
  6
Continuous
100
AcDbDimension
  2
*D33
 10
-1876.199911507661
 20
395.6839582053817
 30
0.0
 11
-2066.199911507661
 21
426.229660797469
 31
0.0
 70
    32
 71
     5
 42
380.0
  3
STANDARD
100
AcDbAlignedDimension
 13
-2256.199911507661
 23
-16.05308420357504
 33
0.0
 14
-1876.199911507661
 24
33.94691579642495
 34
0.0
100
AcDbRotatedDimension
1001
ACAD
1000
DSTYLE
1002
{
1070
    41
1040
50.0
1070
    42
1040
0.0
1070
    43
1040
0.0
1070
    44
1040
20.0
1070
    77
1070
     1
1070
   140
1040
50.0
1070
   147
1040
5.0
1070
   271
1070
     0
1070
   272
1070
     0
1070
   289
1070
     3
1002
}
  0
DIMENSION
  5
24DC
330
A
100
AcDbEntity
  8
0
  6
Continuous
100
AcDbDimension
  2
*D35
 10
-1841.199911507661
 20
-683.142166611964
 30
0.0
 11
-2066.199911507661
 21
-652.6135172258794
 31
0.0
 70
    32
 71
     5
 42
449.9999999999998
  3
STANDARD
100
AcDbAlignedDimension
 13
-2291.199911507661
 23
-779.053084203575
 33
0.0
 14
-1841.199911507661
 24
-779.0530842035749
 34
0.0
100
AcDbRotatedDimension
1001
ACAD
1000
DSTYLE
1002
{
1070
    41
1040
50.0
1070
    42
1040
0.0
1070
    43
1040
0.0
1070
    44
1040
20.0
1070
    77
1070
     1
1070
   140
1040
50.0
1070
   147
1040
5.0
1070
   271
1070
     0
1070
   272
1070
     0
1070
   289
1070
     3
1002
}
  0
DIMENSION
  5
24E9
330
A
100
AcDbEntity
  8
0
  6
Continuous
100
AcDbDimension
  2
*D36
 10
-1731.875650769594
 20
-1229.053084203575
 30
0.0
 11
-1731.875650769594
 21
-1004.053084203575
 31
0.0
 70
    32
 71
     5
 42
450.0
  3
STANDARD
100
AcDbAlignedDimension
 13
-1841.199911507661
 23
-779.053084203575
 33
0.0
 14
-1841.199911507661
 24
-1229.053084203575
 34
0.0
 50
90.0
100
AcDbRotatedDimension
1001
ACAD
1000
DSTYLE
1002
{
1070
    41
1040
50.0
1070
    42
1040
0.0
1070
    43
1040
0.0
1070
    44
1040
20.0
1070
    77
1070
     1
1070
   140
1040
50.0
1070
   147
1040
5.0
1070
   271
1070
     0
1070
   272
1070
     0
1070
   289
1070
     3
1002
}
  0
DIMENSION
  5
250A
330
A
100
AcDbEntity
  8
0
  6
Continuous
100
AcDbDimension
  2
*D37
 10
-2101.699903878267
 20
-510.2408810671659
 30
0.0
 11
-2181.699915322359
 21
-479.7122316810813
 31
0.0
 70
    32
 71
     5
 42
160.0000228881836
  3
STANDARD
100
AcDbAlignedDimension
 13
-2261.699926766451
 23
-429.053084203575
 33
0.0
 14
-2101.699903878267
 24
-429.053084203575
 34
0.0
100
AcDbRotatedDimension
1001
ACAD
1000
DSTYLE
1002
{
1070
    41
1040
50.0
1070
    42
1040
0.0
1070
    43
1040
0.0
1070
    44
1040
20.0
1070
    77
1070
     1
1070
   140
1040
50.0
1070
   147
1040
5.0
1070
   271
1070
     0
1070
   272
1070
     0
1070
   289
1070
     3
1002
}
  0
MTEXT
  5
253D
330
A
100
AcDbEntity
  8
0
  6
Continuous
100
AcDbMText
 10
-2233.515768105037
 20
-529.2343113042134
 30
0.0
 40
50.0
 41
91.55841665749903
 71
     1
 72
     5
  1
391
 73
     1
 44
1.0
1001
ACAD
1000
MTEXTBEGIN
1070
    73
1070
     1
1070
    44
1040
1.0
1070
    74
1070
     0
1000
MTEXTEND
  0
MTEXT
  5
257C
330
A
100
AcDbEntity
  8
0
  6
Continuous
100
AcDbMText
 10
-1761.903730808573
 20
234.0965310498668
 30
0.0
 40
50.0
 41
137.7417873687311
 71
     1
 72
     5
  1
 M8
 73
     1
 44
1.0
1001
ACAD
1000
MTEXTBEGIN
1070
    73
1070
     1
1070
    44
1040
1.0
1070
    74
1070
     0
1000
MTEXTEND
1000
ACAD_MTEXT_DEFINED_HEIGHT_BEGIN
1070
    46
1040
50.89976411817694
1000
ACAD_MTEXT_DEFINED_HEIGHT_END
  0
LINE
  5
257D
330
A
100
AcDbEntity
  8
0
  6
Continuous
100
AcDbLine
 10
-1755.94341281702
 20
180.6347381494295
 30
0.0
 11
-1642.293852583167
 21
180.6347381494295
 31
0.0
  0
LINE
  5
257E
330
A
100
AcDbEntity
  8
0
  6
Continuous
100
AcDbLine
 10
-1941.199911507661
 20
75.94691579642494
 30
0.0
 11
-1755.94341281702
 21
180.6347381494295
 31
0.0
  0
MTEXT
  5
2585
330
A
100
AcDbEntity
  8
0
  6
Continuous
100
AcDbMText
 10
-2041.593896944352
 20
44.66752974059386
 30
0.0
 40
50.0
 41
137.7417873687311
 71
     1
 72
     5
  1
 1"
 73
     1
 44
1.0
1001
ACAD
1000
MTEXTBEGIN
1070
    73
1070
     1
1070
    44
1040
1.0
1070
    74
1070
     0
1000
MTEXTEND
1000
ACAD_MTEXT_DEFINED_HEIGHT_BEGIN
1070
    46
1040
50.89976411817694
1000
ACAD_MTEXT_DEFINED_HEIGHT_END
  0
LINE
  5
2586
330
A
100
AcDbEntity
  8
0
  6
Continuous
100
AcDbLine
 10
-2035.633578952799
 20
-8.794263159843467
 30
0.0
 11
-1921.984018718946
 21
-8.794263159843467
 31
0.0
  0
LINE
  5
2587
330
A
100
AcDbEntity
  8
0
  6
Continuous
100
AcDbLine
 10
-1921.984018718946
 20
-8.794263159843467
 30
0.0
 11
-1876.199911507661
 21
33.94691579642495
 31
0.0
  0
MTEXT
  5
2588
330
A
100
AcDbEntity
  8
0
  6
Continuous
100
AcDbMText
 10
-2214.836709175156
 20
-41.25386678981044
 30
0.0
 40
50.0
 41
137.7417873687311
 71
     1
 72
     5
  1
 1"
 73
     1
 44
1.0
1001
ACAD
1000
MTEXTBEGIN
1070
    73
1070
     1
1070
    44
1040
1.0
1070
    74
1070
     0
1000
MTEXTEND
1000
ACAD_MTEXT_DEFINED_HEIGHT_BEGIN
1070
    46
1040
50.89976411817694
1000
ACAD_MTEXT_DEFINED_HEIGHT_END
  0
LINE
  5
2589
330
A
100
AcDbEntity
  8
0
  6
Continuous
100
AcDbLine
 10
-2208.876391183603
 20
-94.71565969024778
 30
0.0
 11
-2121.867451625043
 21
-94.71565969024778
 31
0.0
  0
LINE
  5
258A
330
A
100
AcDbEntity
  8
0
  6
Continuous
100
AcDbLine
 10
-2208.876391183603
 20
-94.71565969024778
 30
0.0
 11
-2256.199911507661
 21
-16.05308420357504
 31
0.0
  0
ENDSEC
  0
SECTION
  2
OBJECTS
  0
DICTIONARY
  5
19
330
0
100
AcDbDictionary
281
     1
  3
ACAD_COLOR
350
61
  3
ACAD_GROUP
350
1A
  3
ACAD_LAYOUT
350
3C
  3
ACAD_MATERIAL
350
4C
  3
ACAD_MLEADERSTYLE
350
144
  3
ACAD_MLINESTYLE
350
1B
  3
ACAD_PLOTSETTINGS
350
3D
  3
ACAD_PLOTSTYLENAME
350
3A
  3
ACAD_SCALELIST
350
122
  3
ACAD_TABLESTYLE
350
62
  3
ACAD_VISUALSTYLE
350
50
  3
ACDB_RECOMPOSE_DATA
350
428
  3
AcDbVariableDictionary
350
49
  3
ASE_INDEX_DICTIONARY
350
45
  3
DWGPROPS
350
25AD
  0
DICTIONARY
  5
50B
330
7
100
AcDbDictionary
280
     1
281
     1
  0
DICTIONARY
  5
422
330
14
100
AcDbDictionary
280
     1
281
     1
  3
ADSK_XREC_LAYER_RECONCILED
360
423
  0
DICTIONARY
  5
DD
330
A
100
AcDbDictionary
280
     1
281
     1
  3
ACAD_SORTENTS
360
DE
  0
DICTIONARY
  5
170
330
16E
100
AcDbDictionary
280
     1
281
     1
  3
ACAD_SORTENTS
360
171
  0
DICTIONARY
  5
640
330
628
100
AcDbDictionary
280
     1
281
     1
  3
ACAD_SORTENTS
360
641
  0
DICTIONARY
  5
65D
330
645
100
AcDbDictionary
280
     1
281
     1
  3
ACAD_SORTENTS
360
65E
  0
DICTIONARY
  5
BBB
330
B84
100
AcDbDictionary
280
     1
281
     1
  3
ACAD_SORTENTS
360
BBC
  0
DICTIONARY
  5
E6E
330
E54
100
AcDbDictionary
280
     1
281
     1
  3
ACAD_SORTENTS
360
E6F
  0
DICTIONARY
  5
61
102
{ACAD_REACTORS
330
19
102
}
330
19
100
AcDbDictionary
281
     1
  0
DICTIONARY
  5
1A
102
{ACAD_REACTORS
330
19
102
}
330
19
100
AcDbDictionary
281
     1
  0
DICTIONARY
  5
3C
102
{ACAD_REACTORS
330
19
102
}
330
19
100
AcDbDictionary
281
     1
  3
Layout1
350
3F
  3
Model
350
3E
  0
DICTIONARY
  5
4C
102
{ACAD_REACTORS
330
19
102
}
330
19
100
AcDbDictionary
281
     1
  3
ByBlock
350
4E
  3
ByLayer
350
4D
  3
Global
350
4F
  0
DICTIONARY
  5
144
102
{ACAD_REACTORS
330
19
102
}
330
19
100
AcDbDictionary
281
     1
  3
Standard
350
145
  0
DICTIONARY
  5
1B
102
{ACAD_REACTORS
330
19
102
}
330
19
100
AcDbDictionary
281
     1
  3
STANDARD
350
1C
  0
DICTIONARY
  5
3D
102
{ACAD_REACTORS
330
19
102
}
330
19
100
AcDbDictionary
281
     1
  0
ACDBDICTIONARYWDFLT
  5
3A
102
{ACAD_REACTORS
330
19
102
}
330
19
100
AcDbDictionary
281
     1
  3
Normal
350
3B
100
AcDbDictionaryWithDefault
340
3B
  0
DICTIONARY
  5
122
102
{ACAD_REACTORS
330
19
102
}
330
19
100
AcDbDictionary
281
     1
  3
A0
350
123
  3
A1
350
124
  3
A2
350
125
  3
A3
350
126
  3
A4
350
127
  3
A5
350
128
  3
A6
350
129
  3
A7
350
12A
  3
A8
350
12B
  3
A9
350
12C
  3
B0
350
12D
  3
B1
350
12E
  3
B2
350
12F
  3
B3
350
130
  3
B4
350
131
  3
B5
350
132
  3
B6
350
133
  3
B7
350
134
  3
B8
350
135
  3
B9
350
136
  3
C0
350
137
  3
C1
350
138
  3
C2
350
139
  3
C3
350
13A
  3
C4
350
13B
  3
C5
350
13C
  3
C6
350
13D
  3
C7
350
13E
  3
C8
350
13F
  3
C9
350
140
  3
D0
350
141
  3
D1
350
142
  3
D2
350
143
  0
DICTIONARY
  5
62
102
{ACAD_REACTORS
330
19
102
}
330
19
100
AcDbDictionary
281
     1
  3
Standard
350
63
  0
DICTIONARY
  5
50
102
{ACAD_REACTORS
330
19
102
}
330
19
100
AcDbDictionary
281
     1
  3
2dWireframe
350
56
  3
3D Hidden
350
58
  3
3dWireframe
350
57
  3
Basic
350
55
  3
Brighten
350
5C
  3
ColorChange
350
60
  3
Conceptual
350
59
  3
Dim
350
5B
  3
Facepattern
350
5F
  3
Flat
350
51
  3
FlatWithEdges
350
52
  3
Gouraud
350
53
  3
GouraudWithEdges
350
54
  3
Linepattern
350
5E
  3
Realistic
350
5A
  3
Thicken
350
5D
  0
XRECORD
  5
428
102
{ACAD_REACTORS
330
19
102
}
330
19
100
AcDbXrecord
280
     1
 90
        1
330
63
  0
DICTIONARY
  5
49
102
{ACAD_REACTORS
330
19
102
}
330
19
100
AcDbDictionary
281
     1
  3
CANNOSCALE
350
425
  3
CMLEADERSTYLE
350
424
  3
CTABLESTYLE
350
C4
  3
DIMASSOC
350
4A
  3
INDEXCTL
350
C6
  3
SORTENTS
350
C5
  0
DICTIONARY
  5
45
102
{ACAD_REACTORS
330
19
102
}
330
19
100
AcDbDictionary
281
     1
  3
ASEBlockHierarchyIndexRecord
350
47
1001
DCO15
1040
1529128966.25
  0
XRECORD
  5
25AD
102
{ACAD_REACTORS
330
19
102
}
330
19
100
AcDbXrecord
280
     1
  1
DWGPROPS COOKIE
  2

  3

  4

  6

  7

  8
brto
  9

300
=
301
=
302
=
303
=
304
=
305
=
306
=
307
=
308
=
309
=
 40
0.4452271643518519
 41
2453042.321168982
 42
2454490.592243229
  1

 90
        0
  0
XRECORD
  5
423
102
{ACAD_REACTORS
330
422
102
}
330
422
100
AcDbXrecord
280
     1
290
     1
  0
SORTENTSTABLE
  5
DE
102
{ACAD_REACTORS
330
DD
102
}
330
DD
100
AcDbSortentsTable
330
A
  0
SORTENTSTABLE
  5
171
102
{ACAD_REACTORS
330
170
102
}
330
170
100
AcDbSortentsTable
330
16E
  0
SORTENTSTABLE
  5
641
102
{ACAD_REACTORS
330
640
102
}
330
640
100
AcDbSortentsTable
330
628
  0
SORTENTSTABLE
  5
65E
102
{ACAD_REACTORS
330
65D
102
}
330
65D
100
AcDbSortentsTable
330
645
  0
SORTENTSTABLE
  5
BBC
102
{ACAD_REACTORS
330
BBB
102
}
330
BBB
100
AcDbSortentsTable
330
B84
  0
SORTENTSTABLE
  5
E6F
102
{ACAD_REACTORS
330
E6E
102
}
330
E6E
100
AcDbSortentsTable
330
E54
  0
LAYOUT
  5
3F
102
{ACAD_XDICTIONARY
360
25B0
102
}
102
{ACAD_REACTORS
330
3C
102
}
330
3C
100
AcDbPlotSettings
  1

  2
\\HOWES50\HP LaserJet 4200 PS LT
  4

  6

 40
0.0
 41
0.0
 42
0.0
 43
0.0
 44
0.0
 45
0.0
 46
0.0
 47
0.0
 48
0.0
 49
0.0
140
0.0
141
0.0
142
1.0
143
1.0
 70
   688
 72
     0
 73
     0
 74
     5
  7

 75
    16
147
1.0
148
0.0
149
0.0
100
AcDbLayout
  1
Layout1
 70
     0
 71
     1
 10
0.0
 20
0.0
 11
1147.891967773437
 21
1238.149536132812
 12
0.0
 22
0.0
 32
0.0
 14
1.000000000000000E+20
 24
1.000000000000000E+20
 34
1.000000000000000E+20
 15
-1.000000000000000E+20
 25
-1.000000000000000E+20
 35
-1.000000000000000E+20
146
0.0
 13
0.0
 23
0.0
 33
0.0
 16
1.0
 26
0.0
 36
0.0
 17
0.0
 27
1.0
 37
0.0
 76
     0
330
B
  0
LAYOUT
  5
3E
102
{ACAD_XDICTIONARY
360
25AE
102
}
102
{ACAD_REACTORS
330
3C
102
}
330
3C
100
AcDbPlotSettings
  1

  2
\\HOWES50\HP LaserJet 4200 PS LT
  4

  6

 40
0.0
 41
0.0
 42
0.0
 43
0.0
 44
0.0
 45
0.0
 46
0.0
 47
0.0
 48
0.0
 49
0.0
140
0.0
141
0.0
142
1.0
143
1.0
 70
  1712
 72
     0
 73
     0
 74
     0
  7

 75
     0
147
1.0
148
0.0
149
0.0
100
AcDbLayout
  1
Model
 70
     1
 71
     0
 10
0.0
 20
0.0
 11
12.0
 21
9.0
 12
0.0
 22
0.0
 32
0.0
 14
0.0
 24
0.0
 34
0.0
 15
0.0
 25
0.0
 35
0.0
146
0.0
 13
0.0
 23
0.0
 33
0.0
 16
1.0
 26
0.0
 36
0.0
 17
0.0
 27
1.0
 37
0.0
 76
     0
330
A
331
48
  0
MATERIAL
  5
4E
102
{ACAD_XDICTIONARY
360
25B4
102
}
102
{ACAD_REACTORS
330
4C
102
}
330
4C
100
AcDbMaterial
  1
ByBlock
  0
MATERIAL
  5
4D
102
{ACAD_XDICTIONARY
360
25B2
102
}
102
{ACAD_REACTORS
330
4C
102
}
330
4C
100
AcDbMaterial
  1
ByLayer
  0
MATERIAL
  5
4F
102
{ACAD_XDICTIONARY
360
25B6
102
}
102
{ACAD_REACTORS
330
4C
102
}
330
4C
100
AcDbMaterial
  1
Global
  0
MLEADERSTYLE
  5
145
102
{ACAD_REACTORS
330
144
102
}
330
144
100
AcDbMLeaderStyle
170
     2
171
     1
172
     0
 90
        2
 40
0.0
 41
0.0
173
     1
 91
-1056964608
340
11
 92
       -2
290
     1
 42
0.09
291
     1
 43
0.36
  3
Standard
 44
0.18
300

342
17
174
     1
178
     6
175
     1
176
     0
 93
-1056964608
 45
0.18
292
     0
297
     0
 46
0.18
 94
-1056964608
 47
1.0
 49
1.0
140
1.0
293
     1
141
0.0
294
     1
177
     0
142
1.0
295
     0
296
     0
143
0.125
1001
ACAD_MLEADERVER
1070
     2
  0
MLINESTYLE
  5
1C
102
{ACAD_REACTORS
330
1B
102
}
330
1B
100
AcDbMlineStyle
  2
STANDARD
 70
     0
  3

 62
     0
 51
90.0
 52
90.0
 71
     2
 49
0.5
 62
   256
  6
BYLAYER
 49
-0.5
 62
   256
  6
BYLAYER
  0
ACDBPLACEHOLDER
  5
3B
102
{ACAD_REACTORS
330
3A
102
}
330
3A
  0
SCALE
  5
123
102
{ACAD_REACTORS
330
122
102
}
330
122
100
AcDbScale
 70
     0
300
1:1
140
1.0
141
1.0
290
     1
  0
SCALE
  5
124
102
{ACAD_REACTORS
330
122
102
}
330
122
100
AcDbScale
 70
     0
300
1:2
140
1.0
141
2.0
290
     0
  0
SCALE
  5
125
102
{ACAD_REACTORS
330
122
102
}
330
122
100
AcDbScale
 70
     0
300
1:4
140
1.0
141
4.0
290
     0
  0
SCALE
  5
126
102
{ACAD_REACTORS
330
122
102
}
330
122
100
AcDbScale
 70
     0
300
1:5
140
1.0
141
5.0
290
     0
  0
SCALE
  5
127
102
{ACAD_REACTORS
330
122
102
}
330
122
100
AcDbScale
 70
     0
300
1:8
140
1.0
141
8.0
290
     0
  0
SCALE
  5
128
102
{ACAD_REACTORS
330
122
102
}
330
122
100
AcDbScale
 70
     0
300
1:10
140
1.0
141
10.0
290
     0
  0
SCALE
  5
129
102
{ACAD_REACTORS
330
122
102
}
330
122
100
AcDbScale
 70
     0
300
1:16
140
1.0
141
16.0
290
     0
  0
SCALE
  5
12A
102
{ACAD_REACTORS
330
122
102
}
330
122
100
AcDbScale
 70
     0
300
1:20
140
1.0
141
20.0
290
     0
  0
SCALE
  5
12B
102
{ACAD_REACTORS
330
122
102
}
330
122
100
AcDbScale
 70
     0
300
1:30
140
1.0
141
30.0
290
     0
  0
SCALE
  5
12C
102
{ACAD_REACTORS
330
122
102
}
330
122
100
AcDbScale
 70
     0
300
1:40
140
1.0
141
40.0
290
     0
  0
SCALE
  5
12D
102
{ACAD_REACTORS
330
122
102
}
330
122
100
AcDbScale
 70
     0
300
1:50
140
1.0
141
50.0
290
     0
  0
SCALE
  5
12E
102
{ACAD_REACTORS
330
122
102
}
330
122
100
AcDbScale
 70
     0
300
1:100
140
1.0
141
100.0
290
     0
  0
SCALE
  5
12F
102
{ACAD_REACTORS
330
122
102
}
330
122
100
AcDbScale
 70
     0
300
2:1
140
2.0
141
1.0
290
     0
  0
SCALE
  5
130
102
{ACAD_REACTORS
330
122
102
}
330
122
100
AcDbScale
 70
     0
300
4:1
140
4.0
141
1.0
290
     0
  0
SCALE
  5
131
102
{ACAD_REACTORS
330
122
102
}
330
122
100
AcDbScale
 70
     0
300
8:1
140
8.0
141
1.0
290
     0
  0
SCALE
  5
132
102
{ACAD_REACTORS
330
122
102
}
330
122
100
AcDbScale
 70
     0
300
10:1
140
10.0
141
1.0
290
     0
  0
SCALE
  5
133
102
{ACAD_REACTORS
330
122
102
}
330
122
100
AcDbScale
 70
     0
300
100:1
140
100.0
141
1.0
290
     0
  0
SCALE
  5
134
102
{ACAD_REACTORS
330
122
102
}
330
122
100
AcDbScale
 70
     0
300
1/128" = 1'-0"
140
0.0078125
141
12.0
290
     0
  0
SCALE
  5
135
102
{ACAD_REACTORS
330
122
102
}
330
122
100
AcDbScale
 70
     0
300
1/64" = 1'-0"
140
0.015625
141
12.0
290
     0
  0
SCALE
  5
136
102
{ACAD_REACTORS
330
122
102
}
330
122
100
AcDbScale
 70
     0
300
1/32" = 1'-0"
140
0.03125
141
12.0
290
     0
  0
SCALE
  5
137
102
{ACAD_REACTORS
330
122
102
}
330
122
100
AcDbScale
 70
     0
300
1/16" = 1'-0"
140
0.0625
141
12.0
290
     0
  0
SCALE
  5
138
102
{ACAD_REACTORS
330
122
102
}
330
122
100
AcDbScale
 70
     0
300
3/32" = 1'-0"
140
0.09375
141
12.0
290
     0
  0
SCALE
  5
139
102
{ACAD_REACTORS
330
122
102
}
330
122
100
AcDbScale
 70
     0
300
1/8" = 1'-0"
140
0.125
141
12.0
290
     0
  0
SCALE
  5
13A
102
{ACAD_REACTORS
330
122
102
}
330
122
100
AcDbScale
 70
     0
300
3/16" = 1'-0"
140
0.1875
141
12.0
290
     0
  0
SCALE
  5
13B
102
{ACAD_REACTORS
330
122
102
}
330
122
100
AcDbScale
 70
     0
300
1/4" = 1'-0"
140
0.25
141
12.0
290
     0
  0
SCALE
  5
13C
102
{ACAD_REACTORS
330
122
102
}
330
122
100
AcDbScale
 70
     0
300
3/8" = 1'-0"
140
0.375
141
12.0
290
     0
  0
SCALE
  5
13D
102
{ACAD_REACTORS
330
122
102
}
330
122
100
AcDbScale
 70
     0
300
1/2" = 1'-0"
140
0.5
141
12.0
290
     0
  0
SCALE
  5
13E
102
{ACAD_REACTORS
330
122
102
}
330
122
100
AcDbScale
 70
     0
300
3/4" = 1'-0"
140
0.75
141
12.0
290
     0
  0
SCALE
  5
13F
102
{ACAD_REACTORS
330
122
102
}
330
122
100
AcDbScale
 70
     0
300
1" = 1'-0"
140
1.0
141
12.0
290
     0
  0
SCALE
  5
140
102
{ACAD_REACTORS
330
122
102
}
330
122
100
AcDbScale
 70
     0
300
1-1/2" = 1'-0"
140
1.5
141
12.0
290
     0
  0
SCALE
  5
141
102
{ACAD_REACTORS
330
122
102
}
330
122
100
AcDbScale
 70
     0
300
3" = 1'-0"
140
3.0
141
12.0
290
     0
  0
SCALE
  5
142
102
{ACAD_REACTORS
330
122
102
}
330
122
100
AcDbScale
 70
     0
300
6" = 1'-0"
140
6.0
141
12.0
290
     0
  0
SCALE
  5
143
102
{ACAD_REACTORS
330
122
102
}
330
122
100
AcDbScale
 70
     0
300
1'-0" = 1'-0"
140
12.0
141
12.0
290
     0
  0
TABLESTYLE
  5
63
102
{ACAD_XDICTIONARY
360
426
102
}
102
{ACAD_REACTORS
330
62
102
}
330
62
100
AcDbTableStyle
  3
Standard
 70
     0
 71
     0
 40
0.06
 41
0.06
280
     0
281
     0
  7
STANDARD
140
0.18
170
     2
 62
     0
 63
     7
283
     0
274
    -2
284
     1
 64
     0
275
    -2
285
     1
 65
     0
276
    -2
286
     1
 66
     0
277
    -2
287
     1
 67
     0
278
    -2
288
     1
 68
     0
279
    -2
289
     1
 69
     0
  7
STANDARD
140
0.25
170
     5
 62
     0
 63
     7
283
     0
274
    -2
284
     1
 64
     0
275
    -2
285
     1
 65
     0
276
    -2
286
     1
 66
     0
277
    -2
287
     1
 67
     0
278
    -2
288
     1
 68
     0
279
    -2
289
     1
 69
     0
  7
STANDARD
140
0.18
170
     5
 62
     0
 63
     7
283
     0
274
    -2
284
     1
 64
     0
275
    -2
285
     1
 65
     0
276
    -2
286
     1
 66
     0
277
    -2
287
     1
 67
     0
278
    -2
288
     1
 68
     0
279
    -2
289
     1
 69
     0
  0
VISUALSTYLE
  5
56
102
{ACAD_REACTORS
330
50
102
}
330
50
100
AcDbVisualStyle
  2
2dWireframe
 70
     4
 71
     0
 72
     2
 73
     0
 90
        0
 40
-0.6
 41
-30.0
 62
     5
 63
     7
 74
     1
 91
        4
 64
     7
 65
   257
 75
     1
175
     1
 42
1.0
 92
        0
 66
   257
 43
1.0
 76
     1
 77
     6
 78
     2
 67
     7
 79
     5
170
     0
171
     0
290
     0
174
     0
 93
        1
 44
0.0
173
     0
291
     0
 45
0.0
1001
ACAD
1000
AcDbSavedByObjectVersion
1070
     0
1000
AcDbSavedByObjectVersion
1070
     0
1000
AcDbSavedByObjectVersion
1070
     0
  0
VISUALSTYLE
  5
58
102
{ACAD_REACTORS
330
50
102
}
330
50
100
AcDbVisualStyle
  2
3D Hidden
 70
     6
 71
     1
 72
     2
 73
     2
 90
        0
 40
-0.6
 41
-30.0
 62
     5
 63
     7
 74
     2
 91
        2
 64
     7
 65
   257
 75
     2
175
     1
 42
40.0
 92
        0
 66
   257
 43
1.0
 76
     1
 77
     6
 78
     2
 67
     7
 79
     3
170
     0
171
     0
290
     0
174
     0
 93
        1
 44
0.0
173
     0
291
     0
 45
0.0
1001
ACAD
1000
AcDbSavedByObjectVersion
1070
     0
1000
AcDbSavedByObjectVersion
1070
     0
1000
AcDbSavedByObjectVersion
1070
     0
  0
VISUALSTYLE
  5
57
102
{ACAD_REACTORS
330
50
102
}
330
50
100
AcDbVisualStyle
  2
3dWireframe
 70
     5
 71
     0
 72
     2
 73
     0
 90
        0
 40
-0.6
 41
-30.0
 62
     5
 63
     7
 74
     1
 91
        4
 64
     7
 65
   257
 75
     1
175
     1
 42
1.0
 92
        0
 66
   257
 43
1.0
 76
     1
 77
     6
 78
     2
 67
     7
 79
     5
170
     0
171
     0
290
     0
174
     0
 93
        1
 44
0.0
173
     0
291
     0
 45
0.0
1001
ACAD
1000
AcDbSavedByObjectVersion
1070
     0
1000
AcDbSavedByObjectVersion
1070
     0
1000
AcDbSavedByObjectVersion
1070
     0
  0
VISUALSTYLE
  5
55
102
{ACAD_REACTORS
330
50
102
}
330
50
100
AcDbVisualStyle
  2
Basic
 70
     7
 71
     1
 72
     0
 73
     1
 90
        0
 40
-0.6
 41
-30.0
 62
     5
 63
     7
 74
     0
 91
        4
 64
     7
 65
   257
 75
     1
175
     1
 42
1.0
 92
        8
 66
     7
 43
1.0
 76
     1
 77
     6
 78
     2
 67
     7
 79
     5
170
     0
171
     0
290
     0
174
     0
 93
        1
 44
0.0
173
     0
291
     1
 45
0.0
1001
ACAD
1000
AcDbSavedByObjectVersion
1070
     0
1000
AcDbSavedByObjectVersion
1070
     0
1000
AcDbSavedByObjectVersion
1070
     0
  0
VISUALSTYLE
  5
5C
102
{ACAD_REACTORS
330
50
102
}
330
50
100
AcDbVisualStyle
  2
Brighten
 70
    12
 71
     2
 72
     2
 73
     0
 90
        0
 40
-0.6
 41
-30.0
 62
     5
 63
     7
 74
     1
 91
        4
 64
     7
 65
   257
 75
     1
175
     1
 42
1.0
 92
        8
 66
     7
 43
1.0
 76
     1
 77
     6
 78
     2
 67
     7
 79
     5
170
     0
171
     0
290
     0
174
     0
 93
        1
 44
50.0
173
     0
291
     1
 45
0.0
1001
ACAD
1000
AcDbSavedByObjectVersion
1070
     0
1000
AcDbSavedByObjectVersion
1070
     0
1000
AcDbSavedByObjectVersion
1070
     0
  0
VISUALSTYLE
  5
60
102
{ACAD_REACTORS
330
50
102
}
330
50
100
AcDbVisualStyle
  2
ColorChange
 70
    16
 71
     2
 72
     2
 73
     3
 90
        0
 40
-0.6
 41
-30.0
 62
     5
 63
     8
 74
     1
 91
        4
 64
     7
 65
   257
 75
     1
175
     1
 42
1.0
 92
        8
 66
     8
 43
1.0
 76
     1
 77
     6
 78
     2
 67
     7
 79
     5
170
     0
171
     0
290
     0
174
     0
 93
        1
 44
0.0
173
     0
291
     1
 45
0.0
1001
ACAD
1000
AcDbSavedByObjectVersion
1070
     0
1000
AcDbSavedByObjectVersion
1070
     0
1000
AcDbSavedByObjectVersion
1070
     0
  0
VISUALSTYLE
  5
59
102
{ACAD_REACTORS
330
50
102
}
330
50
100
AcDbVisualStyle
  2
Conceptual
 70
     9
 71
     3
 72
     2
 73
     0
 90
        0
 40
-0.6
 41
-30.0
 62
     5
 63
     7
 74
     2
 91
        2
 64
     7
 65
   257
 75
     1
175
     1
 42
40.0
 92
        8
 66
     7
 43
1.0
 76
     1
 77
     6
 78
     2
 67
     7
 79
     3
170
     0
171
     0
290
     0
174
     0
 93
        1
 44
0.0
173
     0
291
     0
 45
0.0
1001
ACAD
1000
AcDbSavedByObjectVersion
1070
     0
1000
AcDbSavedByObjectVersion
1070
     0
1000
AcDbSavedByObjectVersion
1070
     0
  0
VISUALSTYLE
  5
5B
102
{ACAD_REACTORS
330
50
102
}
330
50
100
AcDbVisualStyle
  2
Dim
 70
    11
 71
     2
 72
     2
 73
     0
 90
        0
 40
-0.6
 41
-30.0
 62
     5
 63
     7
 74
     1
 91
        4
 64
     7
 65
   257
 75
     1
175
     1
 42
1.0
 92
        8
 66
     7
 43
1.0
 76
     1
 77
     6
 78
     2
 67
     7
 79
     5
170
     0
171
     0
290
     0
174
     0
 93
        1
 44
-50.0
173
     0
291
     1
 45
0.0
1001
ACAD
1000
AcDbSavedByObjectVersion
1070
     0
1000
AcDbSavedByObjectVersion
1070
     0
1000
AcDbSavedByObjectVersion
1070
     0
  0
VISUALSTYLE
  5
5F
102
{ACAD_REACTORS
330
50
102
}
330
50
100
AcDbVisualStyle
  2
Facepattern
 70
    15
 71
     2
 72
     2
 73
     0
 90
        0
 40
-0.6
 41
-30.0
 62
     5
 63
     7
 74
     1
 91
        4
 64
     7
 65
   257
 75
     1
175
     1
 42
1.0
 92
        8
 66
     7
 43
1.0
 76
     1
 77
     6
 78
     2
 67
     7
 79
     5
170
     0
171
     0
290
     0
174
     0
 93
        1
 44
0.0
173
     0
291
     1
 45
0.0
1001
ACAD
1000
AcDbSavedByObjectVersion
1070
     0
1000
AcDbSavedByObjectVersion
1070
     0
1000
AcDbSavedByObjectVersion
1070
     0
  0
VISUALSTYLE
  5
51
102
{ACAD_REACTORS
330
50
102
}
330
50
100
AcDbVisualStyle
  2
Flat
 70
     0
 71
     2
 72
     1
 73
     1
 90
        2
 40
-0.6
 41
30.0
 62
     5
 63
     7
 74
     0
 91
        4
 64
     7
 65
   257
 75
     1
175
     1
 42
1.0
 92
        8
 66
     7
 43
1.0
 76
     1
 77
     6
 78
     2
 67
     7
 79
     5
170
     0
171
     0
290
     0
174
     0
 93
       13
 44
0.0
173
     0
291
     1
 45
0.0
1001
ACAD
1000
AcDbSavedByObjectVersion
1070
     0
1000
AcDbSavedByObjectVersion
1070
     0
1000
AcDbSavedByObjectVersion
1070
     0
  0
VISUALSTYLE
  5
52
102
{ACAD_REACTORS
330
50
102
}
330
50
100
AcDbVisualStyle
  2
FlatWithEdges
 70
     1
 71
     2
 72
     1
 73
     1
 90
        2
 40
-0.6
 41
30.0
 62
     5
 63
     7
 74
     1
 91
        4
 64
     7
 65
   257
 75
     1
175
     1
 42
1.0
 92
        0
 66
   257
 43
1.0
 76
     1
 77
     6
 78
     2
 67
     7
 79
     5
170
     0
171
     0
290
     0
174
     0
 93
       13
 44
0.0
173
     0
291
     1
 45
0.0
1001
ACAD
1000
AcDbSavedByObjectVersion
1070
     0
1000
AcDbSavedByObjectVersion
1070
     0
1000
AcDbSavedByObjectVersion
1070
     0
  0
VISUALSTYLE
  5
53
102
{ACAD_REACTORS
330
50
102
}
330
50
100
AcDbVisualStyle
  2
Gouraud
 70
     2
 71
     2
 72
     2
 73
     1
 90
        2
 40
-0.6
 41
30.0
 62
     5
 63
     7
 74
     0
 91
        4
 64
     7
 65
   257
 75
     1
175
     1
 42
1.0
 92
        0
 66
     7
 43
1.0
 76
     1
 77
     6
 78
     2
 67
     7
 79
     5
170
     0
171
     0
290
     0
174
     0
 93
       13
 44
0.0
173
     0
291
     1
 45
0.0
1001
ACAD
1000
AcDbSavedByObjectVersion
1070
     0
1000
AcDbSavedByObjectVersion
1070
     0
1000
AcDbSavedByObjectVersion
1070
     0
  0
VISUALSTYLE
  5
54
102
{ACAD_REACTORS
330
50
102
}
330
50
100
AcDbVisualStyle
  2
GouraudWithEdges
 70
     3
 71
     2
 72
     2
 73
     1
 90
        2
 40
-0.6
 41
30.0
 62
     5
 63
     7
 74
     1
 91
        4
 64
     7
 65
   257
 75
     1
175
     1
 42
1.0
 92
        0
 66
   257
 43
1.0
 76
     1
 77
     6
 78
     2
 67
     7
 79
     5
170
     0
171
     0
290
     0
174
     0
 93
       13
 44
0.0
173
     0
291
     1
 45
0.0
1001
ACAD
1000
AcDbSavedByObjectVersion
1070
     0
1000
AcDbSavedByObjectVersion
1070
     0
1000
AcDbSavedByObjectVersion
1070
     0
  0
VISUALSTYLE
  5
5E
102
{ACAD_REACTORS
330
50
102
}
330
50
100
AcDbVisualStyle
  2
Linepattern
 70
    14
 71
     2
 72
     2
 73
     0
 90
        0
 40
-0.6
 41
-30.0
 62
     5
 63
     7
 74
     1
 91
        4
 64
     7
 65
   257
 75
     7
175
     7
 42
1.0
 92
        8
 66
     7
 43
1.0
 76
     1
 77
     6
 78
     2
 67
     7
 79
     5
170
     0
171
     0
290
     0
174
     0
 93
        1
 44
0.0
173
     0
291
     1
 45
0.0
1001
ACAD
1000
AcDbSavedByObjectVersion
1070
     0
1000
AcDbSavedByObjectVersion
1070
     0
1000
AcDbSavedByObjectVersion
1070
     0
  0
VISUALSTYLE
  5
5A
102
{ACAD_REACTORS
330
50
102
}
330
50
100
AcDbVisualStyle
  2
Realistic
 70
     8
 71
     2
 72
     2
 73
     0
 90
        0
 40
-0.6
 41
-30.0
 62
     5
 63
     7
 74
     1
 91
        0
 64
     7
 65
   257
 75
     1
175
     1
 42
1.0
 92
        8
 66
     8
 43
1.0
 76
     1
 77
     6
 78
     2
 67
     7
 79
     5
170
     0
171
     0
290
     0
174
     0
 93
       13
 44
0.0
173
     0
291
     0
 45
0.0
1001
ACAD
1000
AcDbSavedByObjectVersion
1070
     0
1000
AcDbSavedByObjectVersion
1070
     0
1000
AcDbSavedByObjectVersion
1070
     0
  0
VISUALSTYLE
  5
5D
102
{ACAD_REACTORS
330
50
102
}
330
50
100
AcDbVisualStyle
  2
Thicken
 70
    13
 71
     2
 72
     2
 73
     0
 90
        0
 40
-0.6
 41
-30.0
 62
     5
 63
     7
 74
     1
 91
        4
 64
     7
 65
   257
 75
     1
175
     1
 42
1.0
 92
       12
 66
     7
 43
1.0
 76
     1
 77
     6
 78
     2
 67
     7
 79
     5
170
     0
171
     0
290
     0
174
     0
 93
        1
 44
0.0
173
     0
291
     1
 45
0.0
1001
ACAD
1000
AcDbSavedByObjectVersion
1070
     0
1000
AcDbSavedByObjectVersion
1070
     0
1000
AcDbSavedByObjectVersion
1070
     0
  0
DICTIONARYVAR
  5
425
102
{ACAD_REACTORS
330
49
102
}
330
49
100
DictionaryVariables
280
     0
  1
1:1
  0
DICTIONARYVAR
  5
424
102
{ACAD_REACTORS
330
49
102
}
330
49
100
DictionaryVariables
280
     0
  1
STANDARD
  0
DICTIONARYVAR
  5
C4
102
{ACAD_REACTORS
330
49
102
}
330
49
100
DictionaryVariables
280
     0
  1
STANDARD
  0
DICTIONARYVAR
  5
4A
102
{ACAD_REACTORS
330
49
102
}
330
49
100
DictionaryVariables
280
     0
  1
1
  0
DICTIONARYVAR
  5
C6
102
{ACAD_REACTORS
330
49
102
}
330
49
100
DictionaryVariables
280
     0
  1
0
  0
DICTIONARYVAR
  5
C5
102
{ACAD_REACTORS
330
49
102
}
330
49
100
DictionaryVariables
280
     0
  1
127
  0
XRECORD
  5
47
102
{ACAD_REACTORS
330
45
102
}
330
45
100
AcDbXrecord
280
     1
  0
DICTIONARY
  5
25B0
330
3F
100
AcDbDictionary
280
     1
281
     1
  3
ACAD_XREC_ROUNDTRIP
360
25B1
  0
DICTIONARY
  5
25AE
330
3E
100
AcDbDictionary
280
     1
281
     1
  3
ACAD_XREC_ROUNDTRIP
360
25AF
  0
DICTIONARY
  5
25B4
330
4E
100
AcDbDictionary
280
     1
281
     1
  3
ACAD_XREC_ROUNDTRIP
360
25B5
  0
DICTIONARY
  5
25B2
330
4D
100
AcDbDictionary
280
     1
281
     1
  3
ACAD_XREC_ROUNDTRIP
360
25B3
  0
DICTIONARY
  5
25B6
330
4F
100
AcDbDictionary
280
     1
281
     1
  3
ACAD_XREC_ROUNDTRIP
360
25B7
  0
DICTIONARY
  5
426
330
63
100
AcDbDictionary
280
     1
281
     1
  3
ACAD_ROUNDTRIP_2008_TABLESTYLE_CELLSTYLEMAP
360
25AC
  3
ACAD_XREC_ROUNDTRIP
360
25B8
  0
XRECORD
  5
25B1
102
{ACAD_REACTORS
330
25B0
102
}
330
25B0
100
AcDbXrecord
280
     1
102
SHADEPLOT
 70
     0
102
SHADEPLOTRESLEVEL
 70
     2
102
SHADEPLOTCUSTOMDPI
 70
   300
  0
XRECORD
  5
25AF
102
{ACAD_REACTORS
330
25AE
102
}
330
25AE
100
AcDbXrecord
280
     1
102
SHADEPLOT
 70
     0
102
SHADEPLOTRESLEVEL
 70
     2
102
SHADEPLOTCUSTOMDPI
 70
   300
  0
XRECORD
  5
25B5
102
{ACAD_REACTORS
330
25B4
102
}
330
25B4
100
AcDbXrecord
280
     1
102
MATERIAL
148
0.0
149
0.0
149
0.0
 93
        0
 94
      127
282
     0
 72
     1
 77
     1
171
     1
175
     1
179
     1
273
     0
  0
XRECORD
  5
25B3
102
{ACAD_REACTORS
330
25B2
102
}
330
25B2
100
AcDbXrecord
280
     1
102
MATERIAL
148
0.0
149
0.0
149
0.0
 93
        0
 94
      127
282
     0
 72
     1
 77
     1
171
     1
175
     1
179
     1
273
     0
  0
XRECORD
  5
25B7
102
{ACAD_REACTORS
330
25B6
102
}
330
25B6
100
AcDbXrecord
280
     1
102
MATERIAL
148
0.0
149
0.0
149
0.0
 93
        0
 94
      127
282
     0
 72
     1
 77
     1
171
     1
175
     1
179
     1
273
     0
  0
CELLSTYLEMAP
  5
25AC
102
{ACAD_REACTORS
330
426
102
}
330
426
100
AcDbCellStyleMap
 90
        3
300
CELLSTYLE
  1
TABLEFORMAT_BEGIN
 90
        5
170
     1
 91
        0
 92
    32768
 62
   257
 93
        1
300
CONTENTFORMAT
  1
CONTENTFORMAT_BEGIN
 90
        0
 91
        0
 92
      512
 93
        0
300

 40
0.0
140
1.0
 94
        5
 62
     0
340
17
144
0.25
309
CONTENTFORMAT_END
171
     1
301
MARGIN
  1
CELLMARGIN_BEGIN
 40
0.06
 40
0.06
 40
0.06
 40
0.06
 40
0.18
 40
0.18
309
CELLMARGIN_END
 94
        6
 95
        1
302
GRIDFORMAT
  1
GRIDFORMAT_BEGIN
 90
        0
 91
        1
 62
     0
 92
       -2
340
0
 93
        0
 40
0.045
309
GRIDFORMAT_END
 95
        2
302
GRIDFORMAT
  1
GRIDFORMAT_BEGIN
 90
        0
 91
        1
 62
     0
 92
       -2
340
0
 93
        0
 40
0.045
309
GRIDFORMAT_END
 95
        4
302
GRIDFORMAT
  1
GRIDFORMAT_BEGIN
 90
        0
 91
        1
 62
     0
 92
       -2
340
0
 93
        0
 40
0.045
309
GRIDFORMAT_END
 95
        8
302
GRIDFORMAT
  1
GRIDFORMAT_BEGIN
 90
        0
 91
        1
 62
     0
 92
       -2
340
0
 93
        0
 40
0.045
309
GRIDFORMAT_END
 95
       16
302
GRIDFORMAT
  1
GRIDFORMAT_BEGIN
 90
        0
 91
        1
 62
     0
 92
       -2
340
0
 93
        0
 40
0.045
309
GRIDFORMAT_END
 95
       32
302
GRIDFORMAT
  1
GRIDFORMAT_BEGIN
 90
        0
 91
        1
 62
     0
 92
       -2
340
0
 93
        0
 40
0.045
309
GRIDFORMAT_END
309
TABLEFORMAT_END
  1
CELLSTYLE_BEGIN
 90
        1
 91
        1
300
_TITLE
309
CELLSTYLE_END
300
CELLSTYLE
  1
TABLEFORMAT_BEGIN
 90
        5
170
     1
 91
        0
 92
        0
 62
   257
 93
        1
300
CONTENTFORMAT
  1
CONTENTFORMAT_BEGIN
 90
        0
 91
        0
 92
      512
 93
        0
300

 40
0.0
140
1.0
 94
        5
 62
     0
340
17
144
0.18
309
CONTENTFORMAT_END
171
     1
301
MARGIN
  1
CELLMARGIN_BEGIN
 40
0.06
 40
0.06
 40
0.06
 40
0.06
 40
0.18
 40
0.18
309
CELLMARGIN_END
 94
        6
 95
        1
302
GRIDFORMAT
  1
GRIDFORMAT_BEGIN
 90
        0
 91
        1
 62
     0
 92
       -2
340
0
 93
        0
 40
0.045
309
GRIDFORMAT_END
 95
        2
302
GRIDFORMAT
  1
GRIDFORMAT_BEGIN
 90
        0
 91
        1
 62
     0
 92
       -2
340
0
 93
        0
 40
0.045
309
GRIDFORMAT_END
 95
        4
302
GRIDFORMAT
  1
GRIDFORMAT_BEGIN
 90
        0
 91
        1
 62
     0
 92
       -2
340
0
 93
        0
 40
0.045
309
GRIDFORMAT_END
 95
        8
302
GRIDFORMAT
  1
GRIDFORMAT_BEGIN
 90
        0
 91
        1
 62
     0
 92
       -2
340
0
 93
        0
 40
0.045
309
GRIDFORMAT_END
 95
       16
302
GRIDFORMAT
  1
GRIDFORMAT_BEGIN
 90
        0
 91
        1
 62
     0
 92
       -2
340
0
 93
        0
 40
0.045
309
GRIDFORMAT_END
 95
       32
302
GRIDFORMAT
  1
GRIDFORMAT_BEGIN
 90
        0
 91
        1
 62
     0
 92
       -2
340
0
 93
        0
 40
0.045
309
GRIDFORMAT_END
309
TABLEFORMAT_END
  1
CELLSTYLE_BEGIN
 90
        2
 91
        1
300
_HEADER
309
CELLSTYLE_END
300
CELLSTYLE
  1
TABLEFORMAT_BEGIN
 90
        5
170
     1
 91
        0
 92
        0
 62
   257
 93
        1
300
CONTENTFORMAT
  1
CONTENTFORMAT_BEGIN
 90
        0
 91
        0
 92
      512
 93
        0
300

 40
0.0
140
1.0
 94
        2
 62
     0
340
17
144
0.18
309
CONTENTFORMAT_END
171
     1
301
MARGIN
  1
CELLMARGIN_BEGIN
 40
0.06
 40
0.06
 40
0.06
 40
0.06
 40
0.18
 40
0.18
309
CELLMARGIN_END
 94
        6
 95
        1
302
GRIDFORMAT
  1
GRIDFORMAT_BEGIN
 90
        0
 91
        1
 62
     0
 92
       -2
340
0
 93
        0
 40
0.045
309
GRIDFORMAT_END
 95
        2
302
GRIDFORMAT
  1
GRIDFORMAT_BEGIN
 90
        0
 91
        1
 62
     0
 92
       -2
340
0
 93
        0
 40
0.045
309
GRIDFORMAT_END
 95
        4
302
GRIDFORMAT
  1
GRIDFORMAT_BEGIN
 90
        0
 91
        1
 62
     0
 92
       -2
340
0
 93
        0
 40
0.045
309
GRIDFORMAT_END
 95
        8
302
GRIDFORMAT
  1
GRIDFORMAT_BEGIN
 90
        0
 91
        1
 62
     0
 92
       -2
340
0
 93
        0
 40
0.045
309
GRIDFORMAT_END
 95
       16
302
GRIDFORMAT
  1
GRIDFORMAT_BEGIN
 90
        0
 91
        1
 62
     0
 92
       -2
340
0
 93
        0
 40
0.045
309
GRIDFORMAT_END
 95
       32
302
GRIDFORMAT
  1
GRIDFORMAT_BEGIN
 90
        0
 91
        1
 62
     0
 92
       -2
340
0
 93
        0
 40
0.045
309
GRIDFORMAT_END
309
TABLEFORMAT_END
  1
CELLSTYLE_BEGIN
 90
        3
 91
        2
300
_DATA
309
CELLSTYLE_END
  0
XRECORD
  5
25B8
102
{ACAD_REACTORS
330
426
102
}
330
426
100
AcDbXrecord
280
     1
102
ACAD_ROUNDTRIP_PRE2007_TABLESTYLE
 90
      512
 91
        0
  1

 92
      512
 93
        0
  2

 94
      512
 95
        0
  3

  0
ENDSEC
  0
EOF
